Today is a free download without charge Download

Другая Земля / Another Earth (Майк Кэхилл / Mike Cahill) [2011, США, фантастика, драма, BDRip 1080p] MVO (R5) + Sub + Original Eng

Reply to topic
 
Author
Message

Omen ®

Longevity: 8 years 5 months

Posts: 181087

Торрент-статистика

Post 31-Mar-2013 06:49

[Quote]

--Другая Земля
Another Earth
-- Страна: США
Студия: XX Век Фокс
Жанр: фантастика, драма
Год выпуска: 2011
Продолжительность: 01:32:26--Перевод: Многоголосый закадровый (R5)
Cубтитры: русские, английские
Оригинальная аудиодорожка: английская--Режиссер: Майк Кэхилл / Mike Cahill--В ролях: Брит Марлинг, Уильям Мапотер, Мэттью-Ли Эрлбах, DJ Flava, Мегган Леннон, Ай Диана, Брюс Колбер, Пол Мези, Ана Валле, Джеффри Голденберг--Описание: Научно-фантастическая драма о трагическом пересечении жизней студентки и композитора в ночь открытия учёными идентичной Земле планеты в Солнечной системе.
--СЭМПЛ
Тип релиза: BDRip 1080p
Контейнер: MKV
Видео: MPEG4 Video (H264) 1920x1036 23.976fps 10.8 Mbps
Аудио: Dolby AC3 48000Hz 6ch 640 Kbps [Russian, MVO]
Аудио 2: DTS 48000Hz 6ch 1 510 Kbps [English]

MI

Код:
General
Unique ID                      : 202418365611456580300656245646958012592 (0x98485BF212E35DCBBA77BB5AAC0428B0)
Complete name                  : F:\TORRENTS\Drugaja.Zemlja.2011.x264.BDRip.(1080p).mkv
Format                         : Matroska
Format version                 : Version 2
File size                      : 8.34 GiB
Duration                       : 1h 32mn
Overall bit rate               : 12.9 Mbps
Movie name                     : Another Earth
Encoded date                   : UTC 2012-05-02 14:51:20
Writing application            : mkvmerge v5.5.0 ('Healer') built on Apr  6 2012 21:43:24
Writing library                : libebml v1.2.3 + libmatroska v1.3.0
Video
ID                             : 1
Format                         : AVC
Format/Info                    : Advanced Video Codec
Format profile                 : [email protected]
Format settings, CABAC         : Yes
Format settings, ReFrames      : 4 frames
Codec ID                       : V_MPEG4/ISO/AVC
Duration                       : 1h 32mn
Bit rate                       : 10.8 Mbps
Width                          : 1 920 pixels
Height                         : 1 036 pixels
Display aspect ratio           : 1.85:1
Frame rate mode                : Constant
Frame rate                     : 23.976 fps
Color space                    : YUV
Chroma subsampling             : 4:2:0
Bit depth                      : 8 bits
Scan type                      : Progressive
Bits/(Pixel*Frame)             : 0.226
Stream size                    : 6.79 GiB (81%)
Title                          : Другая Земля / Another Earth / 2011 / ПМ, СТ / BDRip (1080p)
Writing library                : x264 core 116 r2074 2641b9e
Language                       : English
Default                        : Yes
Forced                         : Yes
Audio #1
ID                             : 2
Format                         : AC-3
Format/Info                    : Audio Coding 3
Mode extension                 : CM (complete main)
Format settings, Endianness    : Big
Codec ID                       : A_AC3
Duration                       : 1h 32mn
Bit rate mode                  : Constant
Bit rate                       : 640 Kbps
Channel(s)                     : 6 channels
Channel positions              : Front: L C R, Side: L R, LFE
Sampling rate                  : 48.0 KHz
Bit depth                      : 16 bits
Compression mode               : Lossy
Stream size                    : 423 MiB (5%)
Title                          : MVO, переработанный R5
Language                       : Russian
Default                        : Yes
Forced                         : Yes
Audio #2
ID                             : 3
Format                         : DTS
Format/Info                    : Digital Theater Systems
Mode                           : 16
Format settings, Endianness    : Big
Codec ID                       : A_DTS
Duration                       : 1h 32mn
Bit rate mode                  : Constant
Bit rate                       : 1 510 Kbps
Channel(s)                     : 6 channels
Channel positions              : Front: L C R, Side: L R, LFE
Sampling rate                  : 48.0 KHz
Bit depth                      : 24 bits
Compression mode               : Lossy
Stream size                    : 998 MiB (12%)
Language                       : English
Default                        : No
Forced                         : No
Text #1
ID                             : 4
Format                         : UTF-8
Codec ID                       : S_TEXT/UTF8
Codec ID/Info                  : UTF-8 Plain Text
Title                          : RUS, R5 (forced)
Language                       : Russian
Default                        : No
Forced                         : No
Text #2
ID                             : 5
Format                         : UTF-8
Codec ID                       : S_TEXT/UTF8
Codec ID/Info                  : UTF-8 Plain Text
Title                          : RUS (opel)
Language                       : Russian
Default                        : No
Forced                         : No
Text #3
ID                             : 6
Format                         : UTF-8
Codec ID                       : S_TEXT/UTF8
Codec ID/Info                  : UTF-8 Plain Text
Title                          : ENG
Language                       : English
Default                        : No
Forced                         : No

-
-

Скриншоты


-
-
Other forum [Profile] [PM]
Display posts from previous:    
Reply to topic

The time now is: Today 13:31

All times are GMT + 3 Hours



You cannot post new topics in this forum
You cannot reply to topics in this forum
You cannot edit your posts in this forum
You cannot delete your posts in this forum
You cannot vote in polls in this forum
You cannot attach files in this forum
You cannot download files in this forum