Today is a free download without charge Download

Мистер Магу / Mr. Magoo (Стэнли Тонг / Stanley Tong) [1997 г., комедия, HDTVRip 720p] MVO (ОРТ), DVO, AVO (Живов, Визгунов)

Reply to topic
 
Author
Message

Omen ®

Longevity: 8 years 5 months

Posts: 181087

Торрент-статистика

Post 31-Mar-2013 02:45

[Quote]

Мистер Магу / Mr. Magoo
Год выпуска: 1997
Страна: США
Жанр: комедия
Продолжительность: 1:27:30
Перевод: Профессиональный (многоголосый закадровый; двухголосый закадровый); авторский одноголосый
Субтитры: английские
Режиссер: Стэнли Тонг / Stanley Tong
В ролях: Лесли Нилсен, Келли Линч, Малкольм МакДауэлл, Мэтт Кислар, Ник Чинланд, Стивен Тоболовски и др.
Описание:
Мистер Магу, эксцентричный миллионер, был приглашен на открытие музея, в центре экспозиции которого - "Звезда Куристана", драгоценный камень, не имеющий цены. Преступники решили испортить всем праздник и украсть его, но по невероятной случайности ювелирный шедевр оказывается у Мистера Магу. Злоумышленники и ФБР отправляются на поиски. Ситуация осложняется тем, что незадачливый миллионер чудовищно близорук и принципиально не носит очков. Зато его симпатичный бульдог видит за двоих...
Доп.информация:
Рип от Hype (СЭМПЛ)
Старый добрый перевод ОРТ записан с эфира канала Комедия ТВ
Двухголосый перевод, спасибо mnsens
За кассету с Живовым и ее оцифровку благодарности направляются соответственно Marten666 и DjVu-Master
Чистый голос Визгунова от

Отчет MediaInfo

Цитата:
General
Unique ID : 200318885641425474230629381140196949155 (0x96B403975BFE395090ED0D5302DCFCA3)
Complete name : D:\Кино\Mr. Magoo\Mr.Magoo.1997.720p.HDTVRip.4xRus.Eng.mkv
Format : Matroska
Format version : Version 4 / Version 2
File size : 6.05 GiB
Duration : 1h 27mn
Overall bit rate : 9 900 Kbps
Encoded date : UTC 2010-02-22 21:41:31
Writing application : mkvmerge v5.9.0 ('On The Loose') built on Dec 9 2012 15:37:01
Writing library : libebml v1.3.0 + libmatroska v1.4.0
Video
ID : 1
Format : AVC
Format/Info : Advanced Video Codec
Format profile : [email protected]
Format settings, CABAC : Yes
Format settings, ReFrames : 9 frames
Codec ID : V_MPEG4/ISO/AVC
Duration : 1h 27mn
Bit rate : 8 327 Kbps
Width : 1 280 pixels
Height : 688 pixels
Display aspect ratio : 1.85:1
Frame rate mode : Constant
Frame rate : 23.976 fps
Color space : YUV
Chroma subsampling : 4:2:0
Bit depth : 8 bits
Scan type : Progressive
Bits/(Pixel*Frame) : 0.394
Stream size : 5.09 GiB (84%)
Writing library : x264 core 107 r1745 4785e8e
Encoding settings : cabac=1 / ref=9 / deblock=1:-3:-3 / analyse=0x3:0x133 / me=umh / subme=9 / psy=1 / psy_rd=1.20:0.20 / mixed_ref=1 / me_range=32 / chroma_me=1 / trellis=2 / 8x8dct=1 / cqm=0 / deadzone=6,6 / fast_pskip=0 / chroma_qp_offset=-3 / threads=2 / sliced_threads=0 / nr=0 / decimate=0 / interlaced=0 / constrained_intra=0 / bframes=7 / b_pyramid=2 / b_adapt=2 / b_bias=0 / direct=3 / weightb=1 / open_gop=0 / weightp=2 / keyint=250 / keyint_min=23 / scenecut=40 / intra_refresh=0 / rc_lookahead=60 / rc=crf / mbtree=0 / crf=18.5 / qcomp=0.80 / qpmin=10 / qpmax=51 / qpstep=4 / vbv_maxrate=50000 / vbv_bufsize=50000 / crf_max=0.0 / ip_ratio=1.10 / pb_ratio=1.10 / aq=1:0.75 / nal_hrd=none
Language : English
Default : No
Forced : No
Audio #1
ID : 2
Format : AC-3
Format/Info : Audio Coding 3
Mode extension : CM (complete main)
Format settings, Endianness : Big
Codec ID : A_AC3
Duration : 1h 27mn
Bit rate mode : Constant
Bit rate : 192 Kbps
Channel(s) : 2 channels
Channel positions : Front: L R
Sampling rate : 48.0 KHz
Bit depth : 16 bits
Compression mode : Lossy
Stream size : 120 MiB (2%)
Title : MVO
Language : Russian
Default : No
Forced : Yes
Audio #2
ID : 3
Format : AC-3
Format/Info : Audio Coding 3
Mode extension : CM (complete main)
Format settings, Endianness : Big
Codec ID : A_AC3
Duration : 1h 27mn
Bit rate mode : Constant
Bit rate : 224 Kbps
Channel(s) : 2 channels
Channel positions : Front: L R
Sampling rate : 48.0 KHz
Bit depth : 16 bits
Compression mode : Lossy
Stream size : 140 MiB (2%)
Title : DVO
Language : Russian
Default : No
Forced : No
Audio #3
ID : 4
Format : AC-3
Format/Info : Audio Coding 3
Mode extension : CM (complete main)
Format settings, Endianness : Big
Codec ID : A_AC3
Duration : 1h 27mn
Bit rate mode : Constant
Bit rate : 192 Kbps
Channel(s) : 2 channels
Channel positions : Front: L R
Sampling rate : 48.0 KHz
Bit depth : 16 bits
Compression mode : Lossy
Stream size : 120 MiB (2%)
Title : Zjivov
Language : Russian
Default : No
Forced : No
Audio #4
ID : 5
Format : AC-3
Format/Info : Audio Coding 3
Mode extension : CM (complete main)
Format settings, Endianness : Big
Codec ID : A_AC3
Duration : 1h 27mn
Bit rate mode : Constant
Bit rate : 384 Kbps
Channel(s) : 2 channels
Channel positions : Front: L R
Sampling rate : 48.0 KHz
Bit depth : 16 bits
Compression mode : Lossy
Stream size : 240 MiB (4%)
Title : Vizgunov
Language : Russian
Default : No
Forced : No
Audio #5
ID : 6
Format : AC-3
Format/Info : Audio Coding 3
Mode extension : CM (complete main)
Format settings, Endianness : Big
Codec ID : A_AC3
Duration : 1h 27mn
Bit rate mode : Constant
Bit rate : 384 Kbps
Channel(s) : 2 channels
Channel positions : Front: L R
Sampling rate : 48.0 KHz
Bit depth : 16 bits
Compression mode : Lossy
Stream size : 240 MiB (4%)
Title : Eng
Language : English
Default : No
Forced : No
Text
ID : 7
Format : UTF-8
Codec ID : S_TEXT/UTF8
Codec ID/Info : UTF-8 Plain Text
Title : Eng
Language : English
Default : No
Forced : No
Качество: HDTVRip
Формат: MKV
Видео кодек: H.264
Аудио кодек: AC3
Видео: 1280x688; 23.976 fps, 8327 kbps
Аудио:
1 - Dolby AC3; Rus; 48000Hz; 2ch; 192kbps [ОРТ] IPTVRip
2 - Dolby AC3; Rus; 48000Hz; 2ch; 224kbps [двухголосый перевод]
3 - Dolby AC3; Rus; 48000Hz; 2ch; 192kbps [Юрий Живов] VHSRip
4 - Dolby AC3; Rus; 48000Hz; 2ch; 384kbps [Сергей Визгунов]
5 - Dolby AC3; Eng; 48000Hz; 2ch; 384kbps [оригинал]

скриншоты


Other forum [Profile] [PM]
Display posts from previous:    
Reply to topic

The time now is: Today 23:50

All times are GMT + 3 Hours



You cannot post new topics in this forum
You cannot reply to topics in this forum
You cannot edit your posts in this forum
You cannot delete your posts in this forum
You cannot vote in polls in this forum
You cannot attach files in this forum
You cannot download files in this forum