Today is a free download without charge Download

Железный человек 3 в 3Д / iron man 3 3D (Шейн Блэк / Shane Black) [2013, фантастика, боевик, приключения, DCPrip, 1080p] Half OverUnder / Вертикальная анаморфная стереопара Трейлер 2.

Reply to topic
 
Author
Message

Omen ®

Longevity: 8 years 8 months

Posts: 181087

Торрент-статистика

Post 30-Mar-2013 18:10

[Quote]

Железный человек 3 / iron man 3
Год выпуска: 2013
Страна: США,Китай.
Студия: 1.Paramount Pictures 2.Marvel Studios Inc.
Жанр: фантастика, боевик, приключения
Продолжительность: 00:02:31
Перевод: Профессиональный (дублированный)
Русские субтитры: нет
Режиссер на русском: Шейн Блэк
Режиссер на английском: Shane Black
В ролях: Роберт Дауни-Мл., Гвинет Пэлтроу, Дон Чидл, Гай Пирс, Ребекка Холл, Джон Фавро, Бен Кингсли
Описание: Фильм Marvel «Железный человек 3» рассказывает историю столкновения гениального предпринимателя-миллиардера Тони Старка, также известного как Железный человек, с врагом, демонстрирующим поистине безграничные возможности. Когда мир Старка рушится на его глазах по вине неизвестных противников, Тони жаждет найти виновных и свести с ними счеты. Оказавшись в безвыходной ситуации, Старк может рассчитывать только на себя и свою изобретательность, чтобы защитить тех, кто ему дорог. Это становится настоящим испытанием для героя, которому придется не только сражаться с коварным врагом, но и разобраться в себе, чтобы найти ответ на вопрос, который давно его тревожит: что важнее - человек или костюм?
Качество: DCPrip
Контейнер: MKV
Формат 3D: Half OverUnder / Вертикальная анаморфная стереопара
Порядок ракурсов: левый ракурс первый
Видео кодек: h.264
Аудио кодек: AC3
Видео: MPEG4 Video (H264),1920х1080,24fps,19,6 Мбит/сек
Аудио: Rus, Dolby AC3 48000Hz 6ch

MediaInfo

Общее
Уникальный идентификатор : 215217709110431711883251760394374141693 (0xA1E96C4D41523A7093B806E1567AD6FD)
Полное имя : C:\Users\Администратор\Desktop\IronMan3_TLR.mkv
Формат : Matroska
Версия формата : Version 4 / Version 2
Размер файла : 369 Мбайт
Продолжительность : 2 м. 31 с.
Режим общего битрейта : Переменный
Общий поток : 20,4 Мбит/сек
Дата кодирования : UTC 2013-03-25 18:37:54
Программа кодирования : mkvmerge v6.1.0 ('Old Devil') built on Mar 2 2013 14:32:37
Библиотека кодирования : libebml v1.3.0 + libmatroska v1.4.0
Видео
Идентификатор : 2
Формат : AVC
Формат/Информация : Advanced Video Codec
Профиль формата : High[email protected]
Параметр CABAC формата : Да
Параметр ReFrames формата : 2 кадра
Идентификатор кодека : V_MPEG4/ISO/AVC
Продолжительность : 2 м. 31 с.
Вид битрейта : Переменный
Битрейт : 19,6 Мбит/сек
Максимальный битрейт : 26,0 Мбит/сек
Ширина : 1920 пикселей
Высота : 1080 пикселей
Соотношение сторон : 16:9
Режим частоты кадров : Постоянный
Частота кадров : 24,000 кадра/сек
Цветовое пространство : YUV
Субдискретизация насыщенности : 4:2:0
Битовая глубина : 8 бит
Тип развёртки : Прогрессивная
Бит/(Пиксели*Кадры) : 0.393
Размер потока : 354 Мбайт (96%)
Default : Да
Forced : Нет
Аудио
Идентификатор : 1
Формат : AC-3
Формат/Информация : Audio Coding 3
Расширение режима : CM (complete main)
Параметр Endianness формата : Big
Идентификатор кодека : A_AC3
Продолжительность : 2 м. 31 с.
Вид битрейта : Постоянный
Битрейт : 448 Кбит/сек
Каналы : 6 каналов
Расположение каналов : Front: L C R, Side: L R, LFE
Частота : 48,0 КГц
Битовая глубина : 16 бит
Метод сжатия : С потерями
Размер потока : 8,10 Мбайт (2%)
Default : Да
Forced : Нет

Скриншоты

Other forum [Profile] [PM]
Display posts from previous:    
Reply to topic

The time now is: Today 18:11

All times are GMT + 3 Hours



You cannot post new topics in this forum
You cannot reply to topics in this forum
You cannot edit your posts in this forum
You cannot delete your posts in this forum
You cannot vote in polls in this forum
You cannot attach files in this forum
You cannot download files in this forum