Today is a free download without charge Download

Великий Гэтсби в 3Д / The Great Gatsby 3D (Баз Лурман / Baz Luhrmann) [2013, драма, мелодрама, DCPrip, 1080p] Half OverUnder / Вертикальная анаморфная стереопара Трейлер 2.

Reply to topic
 
Author
Message

Omen ®

Longevity: 8 years 8 months

Posts: 181087

Торрент-статистика

Post 30-Mar-2013 18:10

[Quote]

Великий Гэтсби / The Great Gatsby
Год выпуска: 2013
Страна: Австралия, США
Студия: 1.Bazmark Films 2.Red Wagon Prod
Жанр: драма, мелодрама
Продолжительность: 00:02:30
Перевод: Профессиональный (дублированный)
Русские субтитры: нет
Режиссер на русском: Баз Лурман
Режиссер на английском: Baz Luhrmann
В ролях: Леонардо ДиКаприо, Тоби Магуайр, Кэри Маллиган, Айла Фишер
Описание: «Великий Гэтсби» рассказан от лица как бы Фицджеральда, вероятного писателя Ника Каррауэйя, который весной 1922 года, в эпоху разлагающейся морали, блистательного джаза и «королей контрабандного алкоголя», приезжает со Среднего Запада в Нью-Йорк.
Преследуя собственную американскую мечту, он селится по соседству с таинственным, известным своими вечеринками миллионером Джеем Гэтсби, а на противоположном берегу бухты проживают его кузина Дэзи и ее муж, повеса и аристократ, Том Бьюкенен.
Так Ник оказывается вовлеченным в захватывающий мир богатых — их иллюзий, любви и обманов. Он становится свидетелем происходящего в этом мире и пишет историю невозможной любви, вечных мечтаний и человеческой трагедии, которые являются отражением современных нравов.
Качество: DCPrip
Контейнер: MKV
Формат 3D: Half OverUnder / Вертикальная анаморфная стереопара
Порядок ракурсов: левый ракурс первый
Видео кодек: h.264
Аудио кодек: AC3
Видео: MPEG4 Video (H264),1920х1080,24fps,19,8 Мбит/сек
Аудио: Rus, Dolby AC3 48000Hz 6ch

MediaInfo

Общее
Уникальный идентификатор : 234821283978028077814870936827262583550 (0xB0A8EF2A4E19BA88B9E81482F4E2C2FE)
Полное имя : C:\Users\Администратор\Desktop\GREAT-GATSBY_TLR.mkv
Формат : Matroska
Версия формата : Version 4 / Version 2
Размер файла : 371 Мбайт
Продолжительность : 2 м. 30 с.
Режим общего битрейта : Переменный
Общий поток : 20,7 Мбит/сек
Дата кодирования : UTC 2013-03-26 16:51:01
Программа кодирования : mkvmerge v6.1.0 ('Old Devil') built on Mar 2 2013 14:32:37
Библиотека кодирования : libebml v1.3.0 + libmatroska v1.4.0
Видео
Идентификатор : 2
Формат : AVC
Формат/Информация : Advanced Video Codec
Профиль формата : [email protected]
Параметр CABAC формата : Да
Параметр ReFrames формата : 2 кадра
Параметр GOP формата : M=2, N=13
Идентификатор кодека : V_MPEG4/ISO/AVC
Продолжительность : 2 м. 30 с.
Вид битрейта : Переменный
Битрейт : 19,8 Мбит/сек
Максимальный битрейт : 26,0 Мбит/сек
Ширина : 1920 пикселей
Высота : 1080 пикселей
Соотношение сторон : 16:9
Режим частоты кадров : Постоянный
Частота кадров : 24,000 кадра/сек
Цветовое пространство : YUV
Субдискретизация насыщенности : 4:2:0
Битовая глубина : 8 бит
Тип развёртки : Прогрессивная
Бит/(Пиксели*Кадры) : 0.398
Размер потока : 355 Мбайт (96%)
Default : Да
Forced : Нет
Аудио
Идентификатор : 1
Формат : AC-3
Формат/Информация : Audio Coding 3
Расширение режима : CM (complete main)
Параметр Endianness формата : Big
Идентификатор кодека : A_AC3
Продолжительность : 2 м. 30 с.
Вид битрейта : Постоянный
Битрейт : 448 Кбит/сек
Каналы : 6 каналов
Расположение каналов : Front: L C R, Side: L R, LFE
Частота : 48,0 КГц
Битовая глубина : 16 бит
Метод сжатия : С потерями
Размер потока : 8,04 Мбайт (2%)
Default : Да
Forced : Нет

Скриншоты

Other forum [Profile] [PM]
Display posts from previous:    
Reply to topic

The time now is: Today 05:59

All times are GMT + 3 Hours



You cannot post new topics in this forum
You cannot reply to topics in this forum
You cannot edit your posts in this forum
You cannot delete your posts in this forum
You cannot vote in polls in this forum
You cannot attach files in this forum
You cannot download files in this forum