Today is a free download without charge Download

Цель номер один / Цель номер один (Кэтрин Бигелоу / Kathryn Bigelow) [2012, США, Боевик, триллер, драма, история, BDRip 1080p] Dub + AVO + Sub Rus, Eng + Original Eng

Reply to topic
 
Author
Message

Omen ®

Longevity: 8 years 5 months

Posts: 181087

Торрент-статистика

Post 30-Mar-2013 05:58

[Quote]

Цель номер один / Цель номер один-«Десять лет женщина провела в поисках самого опасного в мире человека»- Страна: США
Студия: Annapurna Pictures, Columbia Pictures, First Light Production
Жанр: Боевик, триллер, драма, история
Год выпуска: 2012
Продолжительность: 02:36:59-Перевод 1: Профессиональный (дублированный)
Перевод 2: Авторский (одноголосый закадровый) (Ю. Живов)
Cубтитры: русские, английские
Оригинальная аудиодорожка: английский-Режиссер: Кэтрин Бигелоу / Kathryn Bigelow
В ролях: Джессика Честейн (Jessica Chastain), Джейсон Кларк (Jason Clarke), Джоэл Эдгертон (Joel Edgerton), Дженнифер Или (Jennifer Ehle), Марк Стронг (Mark Strong), Кайл Чандлер (Kyle Chandler), Эдгар Рамирез (Edgar Ramirez (в титрах: Edgar Ramirez)), Джеймс Гандольфини (James Gandolfini)-Описание: История одной из операций спецслужб США по поимке «террориста N1» Усамы Бен Ладена.- -Тип релиза: BDRip 1080p
Контейнер: MKV-Видео: AVC; 1920x1038; 1,850; 23,976 fps; 14,6 Mbps
Аудио 1: Russian (Dolby AC3, 6 ch, 448 Кбит/сек, 48,0 КГц) - Профессиональный (дублированный)
Аудио 2: Russian (Dolby AC3, 6 ch, 384 Кбит/сек, 48,0 КГц) - Авторский (одноголосый закадровый)
Аудио 3: English (DTS, 6 ch, 1510 Кбит/сек, 48,0 КГц)
Формат субтитров: softsub (SRT)

MediaInfo

Общее
Уникальный идентификатор : 254254185305494290505254075449988198511 (0xBF47932C6BD1C66D821E3A034A35B06F)
Полное имя : F:Cel.nomer.odin.2012.D.BDRip.1080p (1).mkv
Формат : Matroska
Размер файла : 18,9 Гбайт
Продолжительность : 2 ч. 36 м.
Общий поток : 17,2 Мбит/сек
Дата кодирования : UTC 2013-03-29 22:13:05
Программа кодирования : mkvmerge v5.8.0 ('No Sleep / Pillow') built on Sep 2 2012 15:37:04
Библиотека кодирования : libebml v1.2.3 + libmatroska v1.3.0
Видео
Идентификатор : 1
Формат : AVC
Формат/Информация : Advanced Video Codec
Профиль формата : [email protected]
Параметр CABAC формата : Да
Параметр ReFrames формата : 4 кадра
Параметры GOP формата : M=4, N=24
Идентификатор кодека : V_MPEG4/ISO/AVC
Продолжительность : 2 ч. 36 м.
Битрейт : 14,6 Мбит/сек
Ширина : 1920 пикс.
Высота : 1038 пикс.
Соотношение сторон : 1,850
Частота кадров : 23,976 кадр/сек
Цветовое пространство : YUV
Подвыборка цветности : 4:2:0
Битовая глубина : 8 бит
Тип развёртки : Прогрессивная
Бит/(Пиксели*Кадры) : 0.305
Размер потока : 16,0 Гбайт (84%)
Заголовок : Zero Dark Thirty 2012 1080p BluRay x264 EbP
Библиотека кодирования : x264 core 129 r2245 bc13772
Настройки программы : cabac=1 / ref=4 / deblock=1:-3:-3 / analyse=0x3:0x113 / me=tesa / subme=10 / psy=1 / psy_rd=0.95:0.03 / mixed_ref=1 / me_range=16 / chroma_me=1 / trellis=2 / 8x8dct=1 / cqm=0 / deadzone=21,11 / fast_pskip=0 / chroma_qp_offset=-3 / threads=12 / lookahead_threads=2 / sliced_threads=0 / nr=0 / decimate=0 / interlaced=0 / bluray_compat=0 / constrained_intra=0 / bframes=8 / b_pyramid=2 / b_adapt=2 / b_bias=0 / direct=3 / weightb=1 / open_gop=0 / weightp=2 / keyint=250 / keyint_min=23 / scenecut=40 / intra_refresh=0 / rc=crf / mbtree=0 / crf=16.0 / qcomp=0.70 / qpmin=0 / qpmax=69 / qpstep=4 / ip_ratio=1.40 / pb_ratio=1.30 / aq=1:0.60
Язык : English
Коэффициенты матрицы : BT.709-5, BT.1361, IEC 61966-2-4 709, SMPTE RP177
Аудио #1
Идентификатор : 2
Формат : AC-3
Формат/Информация : Audio Coding 3
Расширение режима : CM (complete main)
Идентификатор кодека : A_AC3
Продолжительность : 2 ч. 36 м.
Вид битрейта : Постоянный
Битрейт : 448 Кбит/сек
Каналы : 6 каналов
Расположение каналов : Front: L C R, Side: L R, LFE
Частота : 48,0 КГц
Битовая глубина : 16 бит
Метод сжатия : С потерями
Размер потока : 503 Мбайт (3%)
Заголовок : DD 5.1 @ 448 kbps - Dub, R5
Язык : Russian
Аудио #2
Идентификатор : 3
Формат : AC-3
Формат/Информация : Audio Coding 3
Расширение режима : CM (complete main)
Идентификатор кодека : A_AC3
Продолжительность : 2 ч. 36 м.
Вид битрейта : Постоянный
Битрейт : 384 Кбит/сек
Каналы : 6 каналов
Расположение каналов : Front: L C R, Side: L R, LFE
Частота : 48,0 КГц
Битовая глубина : 16 бит
Метод сжатия : С потерями
Размер потока : 431 Мбайт (2%)
Заголовок : AVO
Язык : Russian
Аудио #3
Идентификатор : 4
Формат : DTS
Формат/Информация : Digital Theater Systems
Идентификатор кодека : A_DTS
Продолжительность : 2 ч. 36 м.
Вид битрейта : Постоянный
Битрейт : 1510 Кбит/сек
Каналы : 6 каналов
Расположение каналов : Front: L C R, Side: L R, LFE
Частота : 48,0 КГц
Битовая глубина : 24 бит
Метод сжатия : С потерями
Размер потока : 1,66 Гбайт (9%)
Заголовок : DTS 5.1 @ 1536 kbps
Язык : English
Текст #1
Идентификатор : 5
Формат : UTF-8
Идентификатор кодека : S_TEXT/UTF8
Идентификатор кодека/Информация : UTF-8 Plain Text
Язык : Russian
Текст #2
Идентификатор : 6
Формат : UTF-8
Идентификатор кодека : S_TEXT/UTF8
Идентификатор кодека/Информация : UTF-8 Plain Text
Заголовок : Forced
Язык : English
Текст #3
Идентификатор : 7
Формат : UTF-8
Идентификатор кодека : S_TEXT/UTF8
Идентификатор кодека/Информация : UTF-8 Plain Text
Язык : English
Меню
00:00:00.000 : en:00:00:00.000
00:09:50.298 : en:00:09:50.298
00:15:42.650 : en:00:15:42.650
00:23:05.884 : en:00:23:05.884
00:31:23.048 : en:00:31:23.048
00:41:35.201 : en:00:41:35.201
00:50:30.694 : en:00:50:30.694
01:04:11.806 : en:01:04:11.806
01:13:37.705 : en:01:13:37.705
01:20:27.656 : en:01:20:27.656
01:34:05.849 : en:01:34:05.849
01:46:46.191 : en:01:46:46.191
01:53:17.332 : en:01:53:17.332
02:02:37.725 : en:02:02:37.725
02:14:08.874 : en:02:14:08.874
02:22:34.588 : en:02:22:34.588

Скриншоты

Other forum [Profile] [PM]
Display posts from previous:    
Reply to topic

The time now is: Today 11:32

All times are GMT + 3 Hours



You cannot post new topics in this forum
You cannot reply to topics in this forum
You cannot edit your posts in this forum
You cannot delete your posts in this forum
You cannot vote in polls in this forum
You cannot attach files in this forum
You cannot download files in this forum