Today is a free download without charge Download

Эд Стаффорд: голое выживание (1 серия из 3)/ Ed Stafford: Naked and Marooned (2013) SATRip[обновляемая]

Reply to topic
 
Author
Message

UndegraundMen ®

Longevity: 7 years 7 months

Posts: 25145

Торрент-статистика

Post 30-Mar-2013 01:09

[Quote]

Эд Стаффорд: голое выживание (1 серия из 3)/ Ed Stafford: Naked and Marooned (2013) SATRip[обновляемая]- Русское название: Эд Стаффорд: голое выживание
Оригинальное название: Ed Stafford: Naked and Marooned
Режиссер / Телекомпания: Ed Stafford
Год выпуска: 2013
Жанр: Документальный
Описание:
Эд высадился на берег одинокого острова (архипелаг Фиджи) без средств выживания, кроме одной камеры, которая наблюдает, живой ли он. Стаффорд начнет один из сложнейших экспериментов с выживания, которые сняты на телекамеру. Стоит жара. У него очень мало времени на поиски воды, чтобы не умереть от обезвоживания с самого начала своего эксперимента. Используя камеры, Эд запечатляет всю его жизнь на этом острове: поиск воды и пропитания, разжигание огня, строительство укрытия и предотвращение опасностей. У него отсутствуют инструменты для выживания и съемочная группа, которая помогала бы ему. Он должен определиться с приоритетами и применять свои навыки по выживанию, чтобы выдержать 60 дней.
Продолжительность: 00:44:05
Перевод: Одноголосый закадровый, профессиональный
Видеокодек: Xvid
Битрейт видео: ~1499 Кбит/сек
Размер кадра: 720x400
Качество видео: SATRip
Аудиокодек: MP3, 2 канала
Битрейт аудио: 256 Кбит/сек

Внимание! Раздача ведётся путём добавления новых серий. Описание процедуры обновления торрента

Внимание! Раздача ведётся путём добавления новых серий; при каждом добавлении создётся новый торрент. Чтобы начать докачку новой серии, пользователям необходимо сделать следующее:
(1) остановить скачивание,
(2) удалить старый торрент у себя из клиента (старые серии удалять не надо),
(3) скачать новый торрент и запустить его у себя в клиенте вместо старого, при этом указать клиенту путь в старую папку куда и должно происходить скачивание новых серий.
Ваш клиент при этом должен произвести хеширование (проверку) старой папки (если не производит сам - помогите ему сделать это), и будет докачивать только те серии которых у вас ещё нет. Старые серии при этом не удаляются, а продолжают раздаваться!
Eсли вы уже удалили старые серии, то предотвратить повторную закачку старых серий можно, отжав галочку в соответсвующих местах при запуске нового торрента. По возможности, желательно не удалять старые серии как можно дольше, чтобы релизёр не только продолжал раздавать старые серии, но и смог сконцентрироваться на новых.
Скриншоты:
       
       

MediaInfo

Общее
Полное имя : H:\ДОКУМЕНТАЛКИ\Эд Стаффорд. Голое выживание\Эд Стаффорд. Голое выживание.1x01.avi
Формат : AVI
Формат/Информация : Audio Video Interleave
Размер файла : 557 Мбайт
Продолжительность : 44 м.
Общий поток : 1767 Кбит/сек
Программа кодирования : Lavf52.94.0
Видео
Идентификатор : 0
Формат : MPEG-4 Visual
Профиль формата : [email protected]
Параметр BVOP формата : Нет
Параметр QPel формата : Нет
Параметр GMC формата : Без точки перехода
Параметр матрицы формата : Default (H.263)
Идентификатор кодека : XVID
Идентификатор кодека/Подсказка : XviD
Продолжительность : 44 м.
Битрейт : 1499 Кбит/сек
Ширина : 720 пикселей
Высота : 400 пикселей
Соотношение сторон : 16:9
Частота кадров : 25,000 кадров/сек
Цветовое пространство : YUV
Субдискретизация насыщенности : 4:2:0
Битовая глубина : 8 бит
Тип развёртки : Прогрессивная
Метод сжатия : С потерями
Бит/(Пиксели*Кадры) : 0.208
Размер потока : 472 Мбайт (85%)
Библиотека кодирования : XviD 1.2.1 (UTC 2008-12-04)
Аудио
Идентификатор : 1
Формат : MPEG Audio
Версия формата : Version 1
Профиль формата : Layer 3
Режим : Joint stereo
Идентификатор кодека : 55
Идентификатор кодека/Подсказка : MP3
Продолжительность : 44 м.
Вид битрейта : Постоянный
Битрейт : 256 Кбит/сек
Каналы : 2 канала
Частота : 48,0 КГц
Метод сжатия : С потерями
Размер потока : 80,7 Мбайт (14%)
Выравнивание : Соединение по промежуткам
Продолжительность промежутка : 24 мс. (0,60 видеокадр)
Библиотека кодирования : LAME3.98.4ЄЄЄЄЄЄЄЄЄЄ
Время раздачи: с 9:00 до 21:00 по МСК
Other forum [Profile] [PM]
Display posts from previous:    
Reply to topic

The time now is: Today 06:27

All times are GMT + 3 Hours



You cannot post new topics in this forum
You cannot reply to topics in this forum
You cannot edit your posts in this forum
You cannot delete your posts in this forum
You cannot vote in polls in this forum
You cannot attach files in this forum
You cannot download files in this forum