Today is a free download without charge Download

Конан-варвар / Conan the Barbarian (Джон Милиус) [1982 г., фэнтези, боевик, приключения, BDRip720p]

Reply to topic
 
Author
Message

Delia ®

Gender:

Longevity: 9 years 6 months

Posts: 1821

Торрент-статистика

Post 09-Jul-2011 07:16

[Quote]

Конан-варварConan the Barbarian Год выпуска: 1982
Страна: США
Жанр: фэнтези, боевик, приключения
Продолжительность: 02:10:31
Перевод: Профессиональный (многоголосый закадровый)
Режиссер: Джон Милиус
Продюссер: Д. Константин Конте, Раффаэлла Де Лаурентис, Базз Фейтшанс
Сценарий: Роберт И. Говард, Джон Милиус, Оливер Стоун
Бюджет: $20 000 000
Премьера в мире: 15 марта 1982
В ролях: Арнольд Шварценеггер, Джеймс Эрл Джонс, Макс фон Сюдов, Сэндал Бергман, Бен Дэвидсон, Кассандра Гава, Джерри Лопес, Мако, Валери Кеннессен, Уильям Смит
Описание: В детстве Конан стал свидетелем жестокого убийства своих родителей беспощадным Тулса Думом. Его обезумевшие от запаха крови солдаты разорили и сожгли до тла родную деревню Конана. Мальчик выростает в рабстве и превращается в обладающего неимоверной силой и мышечной массой непобедимого воина.Поклявшись отомстить за родителей он отправляется на поиски своего врага. Его путь полон невероятных приключений, отчаянных поединков, неожиданных встреч и опасностей.Конан с достоинством проходит все испытания, но сможет ли он победить в последней и самой опасной битве в его жизни, битве с непобедимым Тулса Думом?
Качество: BDRip720p
Формат: MKV
Видео кодек: H.26x
Аудио кодек: AC3
Видео: English, 3965 Кбит/сек, 1280*544 (2,35:1), в 23,976 кадр/сек, AVC ([email protected])
Аудио: Russian, 640 Кбит/сек, 48,0 КГц, 16 бит, 6 канала(ов), AC-3
Аудио:English,320 Кбит/сек, 48,0 КГц, 16 бит, 6 канала(ов), AC-3 отдельно на народ.ру
Субтитры:Russian, English - VobSub

MI:

Общее
Уникальный идентификатор : 191261501760065749522761263417789075400 (0x8FE3A01699172ADEBDB85A031AD94FC8)
Полное имя : F:\торрент\Conan The Barbarian (1982) BDRip720p.mkv
Формат : Matroska
Размер файла : 4,28 Гбайт
Продолжительность : 2 ч. 10 м.
Общий поток : 4699 Кбит/сек
Дата кодирования : UTC 2011-07-09 03:28:54
Программа кодирования : mkvmerge v4.8.0 ('I Got The...') built on May 24 2011 03:12:58
Библиотека кодирования : libebml v1.2.0 + libmatroska v1.1.0
Видео
Идентификатор : 1
Формат : AVC
Формат/Информация : Advanced Video Codec
Профиль формата : [email protected]
Параметр CABAC формата : Да
Параметр ReFrames формата : 10 кадры
Идентификатор кодека : V_MPEG4/ISO/AVC
Продолжительность : 2 ч. 10 м.
Битрейт : 3965 Кбит/сек
Ширина : 1280 пикс.
Высота : 544 пикс.
Соотношение сторон : 2,35:1
Частота кадров : 23,976 кадр/сек
Цветовое пространство : YUV
Подвыборка цветности : 4:2:0
Битовая глубина : 8 бит
Тип развёртки : Прогрессивная
Бит/(Пиксели*Кадры) : 0.238
Размер потока : 3,62 Гбайт (84%)
Библиотека кодирования : x264 core 115 r2008 4c552d8
Настройки программы : cabac=1 / ref=10 / deblock=1:-3:-3 / analyse=0x3:0x133 / me=umh / subme=8 / psy=1 / psy_rd=1.00:0.15 / mixed_ref=1 / me_range=64 / chroma_me=1 / trellis=2 / 8x8dct=1 / cqm=0 / deadzone=21,11 / fast_pskip=0 / chroma_qp_offset=-3 / threads=6 / sliced_threads=0 / nr=0 / decimate=1 / interlaced=0 / bluray_compat=0 / constrained_intra=0 / bframes=8 / b_pyramid=2 / b_adapt=2 / b_bias=0 / direct=1 / weightb=1 / open_gop=0 / weightp=2 / keyint=250 / keyint_min=24 / scenecut=40 / intra_refresh=0 / rc_lookahead=50 / rc=crf / mbtree=1 / crf=19.6 / qcomp=0.60 / qpmin=0 / qpmax=69 / qpstep=4 / ip_ratio=1.40 / aq=1:1.00
Язык : English
Аудио
Идентификатор : 2
Формат : AC-3
Формат/Информация : Audio Coding 3
Расширение режима : CM (complete main)
Идентификатор кодека : A_AC3
Продолжительность : 2 ч. 10 м.
Вид битрейта : Постоянный
Битрейт : 640 Кбит/сек
Канал(ы) : 6 канала(ов)
Расположение каналов : Front: L C R, Side: L R, LFE
Частота : 48,0 КГц
Битовая глубина : 16 бит
Метод сжатия : С потерями
Размер потока : 598 Мбайт (14%)
Язык : Russian
Текст #1
Идентификатор : 3
Формат : VobSub
Режим смешивания : zlib
Идентификатор кодека : S_VOBSUB
Идентификатор кодека/Информация : The same subtitle format used on DVDs
Язык : Russian
Текст #2
Идентификатор : 4
Формат : VobSub
Режим смешивания : zlib
Идентификатор кодека : S_VOBSUB
Идентификатор кодека/Информация : The same subtitle format used on DVDs
Язык : English
Меню
00:00:00.000 : en:00:00:00.000
00:13:35.148 : en:00:13:35.148
00:17:38.683 : en:00:17:38.683
00:24:09.323 : en:00:24:09.323
00:29:45.200 : en:00:29:45.200
00:36:55.588 : en:00:36:55.588
00:48:39.291 : en:00:48:39.291
00:59:52.547 : en:00:59:52.547
01:05:16.162 : en:01:05:16.162
01:16:01.432 : en:01:16:01.432
01:23:44.436 : en:01:23:44.436
01:38:02.335 : en:01:38:02.335
01:44:03.571 : en:01:44:03.571
01:56:24.978 : en:01:56:24.978
02:06:02.346 : en:02:06:02.346

Скриншоты

               

_________________
Человек – это канат, натянутый между животным и сверхчеловеком, – канат над пропастью.
В человеке ценно то, что он мост, а не цель. Фридрих Ницше


Last edited by Delia on 2011-08-26 17:49; edited 3 times in total
Other forum [Profile] [PM]
Display posts from previous:    
Reply to topic

The time now is: Today 00:08

All times are GMT + 3 Hours



You cannot post new topics in this forum
You cannot reply to topics in this forum
You cannot edit your posts in this forum
You cannot delete your posts in this forum
You cannot vote in polls in this forum
You cannot attach files in this forum
You cannot download files in this forum