Today is a free download without charge Download

Внутреннее расследование / Internal Affairs (Майк Фиггис / Mike Figgis) [1990, США, триллер, драма, криминал, WEB-DL 720p] MVO + AVO + Original Eng + Subs (eng)

Reply to topic
 
Author
Message

Omen ®

Longevity: 8 years 5 months

Posts: 181087

Торрент-статистика

Post 29-Mar-2013 21:50

[Quote]

Внутреннее расследование
Internal Affairs
«Trust him... he's a cop.»- Страна: США
Жанр: триллер, драма, криминал
Год выпуска: 1990
Продолжительность: 01:54:43-Перевод №1: Профессиональный (многоголосый закадровый)
Перевод №2: Авторский (одноголосый закадровый) А. Гаврилов
Субтитры: английские
Оригинальная аудиодорожка: английская-Режиссёр: Майк Фиггис / Mike Figgis
В ролях: Ричард Гир (Dennis Peck), Энди Гарсиа (Raymond Avilla), Лори Меткаф (Amy Wallace), Нэнси Трэвис (Kathleen Avilla), Ричард Брэдфорд (Grieb), Уильям Болдуин (Van Stretch), Майкл Бич (Dorian Fletcher), Кэтрин Боровиц (Tova Arrocas), Фэй Грант (Penny Stretch), Джон Капелос (Steven Arrocas), Ксандер Беркли (Rudy Mohr), Джон Каподиче (Chief Healy)
Описание: Когда любой из нас попадает в беду, страж правопорядка, являющийся на помощь, подобен ангелу. В минуты несчастья он - единственный спаситель и защитник.
Вы доверяете ему себя всецело и безоглядно. И ни у кого, ни при каких обстоятельствах не возникнет подозрения, что за благородной внешностью, под аккуратно отутюженным полицейским кителем может скрываться дьявол...-
MPAA: R - Лицам до 17 лет обязательно присутствие взрослого-Качество: WEB-DL 720p [Internal Affairs 1990 720p WEB-DL DD5.1 H 264-CtrlHD]
Контейнер: MKV
Видео: H.264/AVC, 1280x718 (16:9), 23.976 fps, ~3981 kbps
Аудио №1: Русский: AC3, 48 kHz, 2/0 (L, R), 192 kbps (MVO)
Аудио №2: Русский: AC3, 48 kHz, 3/2 (L,C,R,l,r) + LFE ch, 384 kbps (Гаврилов)
Аудио №3: Английский: AC3, 48 kHz, 3/2 (L,C,R,l,r) + LFE ch, 384 kbps
Формат субтитров: softsub (SRT)
Навигация по главам: есть
-

MediaInfo

General
Complete name : J:\torrents\Internal.Affairs.1990.720p.WEB-DL.DD5.1.H.264-CtrlHD.mkv
Format : Matroska
Format version : Version 2
File size : 4.04 GiB
Duration : 1h 54mn
Overall bit rate : 5 042 Kbps
Movie name : Internal Affairs (1990) by GuNNeR
Encoded date : UTC 2013-03-29 00:29:36
Writing application : mkvmerge v5.8.0 ('No Sleep / Pillow') built on Sep 2 2012 15:37:04
Writing library : libebml v1.2.3 + libmatroska v1.3.0
Video
ID : 1
Format : AVC
Format/Info : Advanced Video Codec
Format profile : [email protected]
Format settings, CABAC : No
Format settings, ReFrames : 2 frames
Codec ID : V_MPEG4/ISO/AVC
Duration : 1h 54mn
Bit rate : 3 982 Kbps
Width : 1 280 pixels
Height : 718 pixels
Display aspect ratio : 16:9
Frame rate : 23.976 fps
Color space : YUV
Chroma subsampling : 4:2:0
Bit depth : 8 bits
Scan type : Progressive
Bits/(Pixel*Frame) : 0.181
Stream size : 3.19 GiB (79%)
Language : English
Default : Yes
Forced : No
Color primaries : BT.709-5, BT.1361, IEC 61966-2-4, SMPTE RP177
Transfer characteristics : BT.709-5, BT.1361
Matrix coefficients : BT.709-5, BT.1361, IEC 61966-2-4 709, SMPTE RP177
Audio #1
ID : 2
Format : AC-3
Format/Info : Audio Coding 3
Mode extension : CM (complete main)
Codec ID : A_AC3
Duration : 1h 54mn
Bit rate mode : Constant
Bit rate : 192 Kbps
Channel(s) : 2 channels
Channel positions : Front: L R
Sampling rate : 48.0 KHz
Bit depth : 16 bits
Compression mode : Lossy
Stream size : 158 MiB (4%)
Title : MVO
Language : Russian
Default : Yes
Forced : No
Audio #2
ID : 3
Format : AC-3
Format/Info : Audio Coding 3
Mode extension : CM (complete main)
Codec ID : A_AC3
Duration : 1h 54mn
Bit rate mode : Constant
Bit rate : 384 Kbps
Channel(s) : 6 channels
Channel positions : Front: L C R, Side: L R, LFE
Sampling rate : 48.0 KHz
Bit depth : 16 bits
Compression mode : Lossy
Stream size : 315 MiB (8%)
Title : AVO - Гаврилов
Language : Russian
Default : No
Forced : No
Audio #3
ID : 4
Format : AC-3
Format/Info : Audio Coding 3
Mode extension : CM (complete main)
Codec ID : A_AC3
Duration : 1h 54mn
Bit rate mode : Constant
Bit rate : 384 Kbps
Channel(s) : 6 channels
Channel positions : Front: L C R, Side: L R, LFE
Sampling rate : 48.0 KHz
Bit depth : 16 bits
Compression mode : Lossy
Stream size : 315 MiB (8%)
Language : English
Default : No
Forced : No
Text
ID : 5
Format : UTF-8
Codec ID : S_TEXT/UTF8
Codec ID/Info : UTF-8 Plain Text
Title : Full
Language : English
Default : No
Forced : No
Menu
00:00:00.000 : en:"You're Not Alone."
00:04:08.000 : en:I.A.D.
00:07:22.000 : en:Excessive Force
00:15:49.000 : en:Wives
00:29:23.000 : en:Moonlighting
00:38:52.000 : en:Private Investigation
00:49:21.000 : en:Cop Killer
01:02:22.000 : en:Set Up
01:14:35.000 : en:Lies
01:23:24.000 : en:Bad Dream
01:29:37.000 : en:No Apparent Means
01:35:00.000 : en:Betrayal
01:43:23.000 : en:End Of The Road

Скриншоты

-Built with Flash Release
Other forum [Profile] [PM]
Display posts from previous:    
Reply to topic

The time now is: Today 09:47

All times are GMT + 3 Hours



You cannot post new topics in this forum
You cannot reply to topics in this forum
You cannot edit your posts in this forum
You cannot delete your posts in this forum
You cannot vote in polls in this forum
You cannot attach files in this forum
You cannot download files in this forum