Today is a free download without charge Download

Smile Empty Soul - Afterlife [2012, Post-Grunge, Master]

Reply to topic
 
Author
Message

Omen ®

Longevity: 8 years 3 months

Posts: 181087

Торрент-статистика

Post 29-Mar-2013 21:50

[Quote]

Smile Empty Soul - Afterlife
Жанр: Post-Grunge
Продолжительность: 3mn 22s 578ms
Год выпуска: 2012
Описание:
Очень достойный ролик. Смотреть и иметь в коллекции стоит.
Director /Editor: Dillon Novak
Director of Photography / Colorist: Greg Ephraim
Producer: Robby Starbuck
Production Co: RSM
©2012 eOne Music
Качество: Master
Контейнер: MOV
Видео кодек: H.264
Аудио кодек: AAC
Видео: AVC at 10.2 Mbps 1920 x 818 (2.347) at 23.976 fps
Аудио: AAC at 320 Kbps 2 channels, 48.0 KHz

Отчёт MediaInfo / BDInfo

Format : MPEG-4Format profile : QuickTimeCodec ID : qtFile size : 254 MiBDuration : 3mn 22sOverall bit rate : 10.5 MbpsEncoded date : UTC 2012-05-29 15:11:00Tagged date : UTC 2012-05-29 15:46:29Writing library : Apple QuickTimeMedia/UUID : ADC95FA2-4145-472B-B123-238C46D833F5Media/History/UUID : A07F1DF4-E0EA-4435-BCC1-0A32FE78CDC3
VideoID : 1Format : AVCFormat/Info : Advanced Video CodecFormat profile : [email protected] settings, CABAC : NoFormat settings, ReFrames : 2 framesFormat settings, GOP : N=2Codec ID : avc1Codec ID/Info : Advanced Video CodingDuration : 3mn 22sBit rate : 10.2 MbpsWidth : 1 920 pixelsHeight : 818 pixelsDisplay aspect ratio : 2.35:1Frame rate mode : ConstantFrame rate : 23.976 fpsColor space : YUVChroma subsampling : 4:2:0Bit depth : 8 bitsScan type : ProgressiveBits/(Pixel*Frame) : 0.271Stream size : 246 MiB (97%)Language : EnglishEncoded date : UTC 2012-05-29 15:46:15Tagged date : UTC 2012-05-29 15:46:29Color primaries : BT.709Transfer characteristics : BT.709Matrix coefficients : BT.709
AudioID : 2Format : AACFormat/Info : Advanced Audio CodecFormat profile : LCCodec ID : 40Duration : 3mn 22sSource duration : 3mn 22sBit rate mode : ConstantBit rate : 320 KbpsChannel(s) : 2 channelsChannel positions : Front: L RSampling rate : 48.0 KHzCompression mode : LossyStream size : 7.65 MiB (3%)Source stream size : 7.65 MiB (3%)Language : EnglishEncoded date : UTC 2012-05-29 15:46:16Tagged date : UTC 2012-05-29 15:46:29
OtherID : 3Type : Time codeFormat : QuickTime TCDuration : 3mn 22sTime code of first frame : 01:00:00:00Time code settings : StripedLanguage : EnglishEncoded date : UTC 2012-05-29 15:46:29Tagged date : UTC 2012-05-29 15:46:29

Скриншоты

Other forum [Profile] [PM]
Display posts from previous:    
Reply to topic

The time now is: Today 09:57

All times are GMT + 3 Hours



You cannot post new topics in this forum
You cannot reply to topics in this forum
You cannot edit your posts in this forum
You cannot delete your posts in this forum
You cannot vote in polls in this forum
You cannot attach files in this forum
You cannot download files in this forum