Today is a free download without charge Download

Judas Priest - British Steel Live - 30th Anniversary Deluxe Edition [2010, Heavy Metal, Blu-ray]

Reply to topic
 
Author
Message

Omen ®

Longevity: 8 years 3 months

Posts: 181087

Торрент-статистика

Post 29-Mar-2013 17:48

[Quote]

Judas Priest - British Steel Live - 30th Anniversary Deluxe Edition
Жанр: Heavy Metal
Продолжительность: 00:55:68
Год выпуска: 2010
Описание:
В главных ролях:
Ian Hill
Rob Halford
Glenn Tipton
Scott Travis
K. K. Downing
Трек-лист
1. «Rapid Fire» 4:18
2. «Metal Gods» 4:34
3. «Breaking the Law» 2:43
4. «Grinder» 4:06
5. «United» 3:45
6. «You Don't Have to Be Old to Be Wise» 5:24
7. «Living After Midnight» 4:53
8. «The Rage» 5:04
9. «Steeler» 5:23
10. «The Ripper» 3:09
11. «Prophecy» 6:12
12. «Hell Patrol» 3:57
13. «Victim Of Changes» 9:29
14. «Freewheel Burning» 5:49
Доп. информация: Концерт заканчивается исполнением Freewheel Burning, Diamonds And Rust и You’ve Got Another Thing Comin' отсутствуют в этом релизе.
Качество: HDTV
Контейнер: BDAV
Видео кодек: H.264
Аудио кодек: AC3
Видео: H.264 , 1920x1080 , 16:9 , 17,2 Мбит/сек , 29,97 кадров/сек .
Аудио: AC-3 , 384 Кбит/сек , 48,0 КГц , 6 ch.

Отчёт MediaInfo / BDInfo

Формат : BDAVФормат/Информация : Blu-ray VideoРазмер файла : 4,20 ГбайтПродолжительность : 32 м.Режим общего битрейта : ПеременныйОбщий поток : 18,2 Мбит/секМаксимальный общий битрейт : 35,5 Мбит/сек
ВидеоИдентификатор : 4113 (0x1011)Идентификатор меню : 1 (0x1)Формат : AVCФормат/Информация : Advanced Video CodecПрофиль формата : [email protected]Параметр CABAC формата : НетПараметр ReFrames формата : 3 кадраИдентификатор кодека : 27Продолжительность : 32 м.Вид битрейта : ПеременныйБитрейт : 17,2 Мбит/секШирина : 1920 пикселейВысота : 1080 пикселейСоотношение сторон : 16:9Частота кадров : 29,970 кадров/секЦветовое пространство : YUVСубдискретизация насыщенности : 4:2:0Битовая глубина : 8 битТип развёртки : MBAFFБит/(Пиксели*Кадры) : 0.277Размер потока : 3,94 Гбайт (94%)Библиотека кодирования : x264 core 93 r1542M 5b86182Настройки программы : cabac=0 / ref=4 / deblock=0:0:0 / analyse=0:0 / me=dia / subme=0 / psy=1 / psy_rd=0.00:0.00 / mixed_ref=0 / me_range=16 / chroma_me=1 / trellis=0 / 8x8dct=0 / cqm=0 / deadzone=21,11 / fast_pskip=1 / chroma_qp_offset=0 / threads=6 / sliced_threads=0 / nr=0 / decimate=1 / interlaced=tff / constrained_intra=0 / bframes=3 / b_pyramid=1 / b_adapt=0 / b_bias=0 / direct=1 / wpredb=1 / wpredp=0 / keyint=30 / keyint_min=12 / scenecut=0 / intra_refresh=0 / rc_lookahead=0 / rc=abr / mbtree=0 / bitrate=17209 / ratetol=1.0 / qcomp=0.50 / qpmin=10 / qpmax=51 / qpstep=4 / vbv_maxrate=17209 / vbv_bufsize=15000 / ip_ratio=1.40 / pb_ratio=1.30 / aq=0 / nal_hrd=vbr
АудиоИдентификатор : 4352 (0x1100)Идентификатор меню : 1 (0x1)Формат : AC-3Формат/Информация : Audio Coding 3Расширение режима : CM (complete main)Параметр Endianness формата : BigИдентификатор кодека : 129Продолжительность : 32 м.Вид битрейта : ПостоянныйБитрейт : 384 Кбит/секКаналы : 6 каналовРасположение каналов : Front: L C R, Side: L R, LFEЧастота : 48,0 КГцБитовая глубина : 16 битМетод сжатия : С потерямиЗадержка видео : 15 мс.Размер потока : 90,6 Мбайт (2%)Язык : English

Скриншоты

Other forum [Profile] [PM]
Display posts from previous:    
Reply to topic

The time now is: Today 04:26

All times are GMT + 3 Hours



You cannot post new topics in this forum
You cannot reply to topics in this forum
You cannot edit your posts in this forum
You cannot delete your posts in this forum
You cannot vote in polls in this forum
You cannot attach files in this forum
You cannot download files in this forum