Today is a free download without charge Download

Такси / Таксі / Сезон: 2, Серии: 10-43 из 50 (Антон Щербаков) [2013, Комедия, ситком, WEBRip 1080p]

Reply to topic
 
Author
Message

Omen ®

Longevity: 9 years

Posts: 181086

Торрент-статистика

Post 29-Mar-2013 09:40

[Quote]

Такси-2 / Таксі-2
Год выпуска: 2013
Производство: «FILM.UA Production» / ICTV
Жанр: Комедия, ситком
Продолжительность: 34 x ~ 00:25:00
Режиссёр: Антон Щербаков
В ролях: Сергей Белоголовцев, Сергей Рост, Екатерина Кистень, Егор Крутоголов, Павел Галич, Роман Хан
Описание: Зрители ICTV увидят украинскую версию легендарного американского ситкома. «Такси» вошел в список лучших комедийных сериалов в истории телевидения: 18 премий «Эмми» за 5 сезонов, сотни приглашенных звезд в кадре и тысячи фанов по другую сторону экрана! Роли в проекте принесли первую славу таким «гуру» Голливуда, как Денни де Вито, Кристофер Ллойд и Энтони Хопкинс! Над украинской версией ситкома поработала команда профессиональных сценаристов во главе с известным «камеди-клаберам» и ноуменом Антон Лирник. События сериала разворачиваются вокруг службы такси и жизнь ее колоритных сотрудников: водители, механики и руководитель станут участниками невероятных и веселых историй. Практически все работники службы пришли сюда «только на время», а оставшиеся «несколько дольше, чем планировали». «Старожил» гаража Алексей, начинающий актер Эдик, дизайнер Елена, боксер Егор, кореец Ван и странный человек многосложный работают под руководством хитрого и опытного бюрократа Валерика, дружат, ссорятся, попадают в забавные ситуации и вместе с ним выпутываются. - Главный секрет в том, чтобы сюжет был правдивым, состоял из ситуаций и историй нашей с вами жизни, - поделился своим видением сюжета креативный продюсер проекта Антон Лирник. - Мы собираем эти истории и подаем так, чтобы выглядели они интересно, забавно и весело.
Качество: WEBRip 1080p
Формат: MKV
Видео кодек: H.264
Аудио кодек: AC3
Видео: 1920x1080, 25 fps, H.264,~6136 kbps avg, ~0.118 bit/pixel
Аудио: AC3, 48 kHz, 2/0 (L, R), 192 kbps

Список серии

10.Племянница
11.Новый сосед
12.Партнеры
13.Война
14.Юбилей мамы
15.На слабо
16.Школа
17.Наследник
18.Осада
19.Кодекс друга
20.Повар
21.Звезда
22.Лекарства
23.Гипноз
24.ДТП
25.Первый раз
26.Давай поженимся
27.Ревность
28.Катафалк
29.Родственные чувства
30.Как баба
31.Охранник
32.Независимость
33.Чувство юмора
34.Амгей
35.Отец
36.Салон
37.Художник
38.Жеребец
39.Апостол
40.Карточка
41.Жиголо
42.Нелюбовь
43.Замена

MI

General
Unique ID : 220472783099702240202822257197188372748 (0xA5DD83740AC281B5B3A418AA3953D90C)
Complete name : F:\такси2\Taksi.Getty.WEB-DL.1080p\Taksi.e51.WEB-DL.1080p.Getty.mkv
Format : Matroska
Format version : Version 4 / Version 2
File size : 1.05 GiB
Duration : 23mn 14s
Overall bit rate : 6 456 Kbps
Encoded date : UTC 2013-03-28 23:07:55
Writing application : mkvmerge v6.1.0 ('Old Devil') built on Mar 4 2013 09:10:42
Writing library : libebml v1.3.0 + libmatroska v1.4.0
Video
ID : 1
Format : AVC
Format/Info : Advanced Video Codec
Format profile : [email protected]
Format settings, CABAC : No
Format settings, ReFrames : 2 frames
Codec ID : V_MPEG4/ISO/AVC
Duration : 23mn 14s
Bit rate : 6 136 Kbps
Width : 1 920 pixels
Height : 1 080 pixels
Display aspect ratio : 16:9
Frame rate mode : Constant
Frame rate : 25.000 fps
Color space : YUV
Chroma subsampling : 4:2:0
Bit depth : 8 bits
Scan type : Progressive
Bits/(Pixel*Frame) : 0.118
Stream size : 1 020 MiB (95%)
Default : Yes
Forced : No
Color primaries : BT.709
Transfer characteristics : BT.709
Matrix coefficients : BT.709
Audio
ID : 2
Format : AC-3
Format/Info : Audio Coding 3
Mode extension : CM (complete main)
Format settings, Endianness : Big
Codec ID : A_AC3
Duration : 23mn 14s
Bit rate mode : Constant
Bit rate : 192 Kbps
Channel(s) : 2 channels
Channel positions : Front: L R
Sampling rate : 48.0 KHz
Bit depth : 16 bits
Compression mode : Lossy
Stream size : 31.9 MiB (3%)
Default : Yes
Forced : No

Скриншоты


Other forum [Profile] [PM]
Display posts from previous:    
Reply to topic

The time now is: Today 16:51

All times are GMT + 3 Hours



You cannot post new topics in this forum
You cannot reply to topics in this forum
You cannot edit your posts in this forum
You cannot delete your posts in this forum
You cannot vote in polls in this forum
You cannot attach files in this forum
You cannot download files in this forum