Today is a free download without charge Download

Дом в конце улицы / House at the End of the Street (Марк Тондерай / Mark Tonderai) [2012, США, Канада, ужасы, триллер, BDRip 1080p] Dub + Sub Rus, Eng, Spa + Original Eng

Reply to topic
 
Author
Message

Omen ®

Longevity: 8 years 5 months

Posts: 181087

Торрент-статистика

Post 29-Mar-2013 09:40

[Quote]

Дом в конце улицы / House at the End of the Street-«Страх живёт по соседству»- Страна: США, Канада
Студия: A Bigger Boat, FilmNation Entertainment, Relativity Media, Zed Filmworks
Жанр: ужасы, триллер
Год выпуска: 2012
Продолжительность: 01:41:46-Перевод: Профессиональный (дублированный)
Cубтитры: русские, английские (Full, SDH), испанские
Оригинальная аудиодорожка: английский-Режиссер: Марк Тондерай / Mark Tonderai
В ролях: Дженнифер Лоуренс (Jennifer Lawrence), Макс Тириот (Max Thieriot), Элизабет Шу (Elisabeth Shue), Джил Беллоуз (Gil Bellows), Ева Линк (Eva Link), Нолан Фанк (Nolan Funk), Элли МакДональд (Allie MacDonald), Джордан Хэйес (Jordan Hayes)-Описание: Переехав жить в небольшой провинциальный город, Сара и ее дочь еще не догадываются, что вскоре окажутся в эпицентре очень ужасной истории. Когда окажется, что вблизи живет серийный убийца…- -Тип релиза: BDRip 1080p
Контейнер: MKV-Видео: AVC; 1920x800; 2,40:1; 23,976 fps; 14,8 Mbps
Аудио 1: Russian (DTS, 6 ch, 1510 Кбит/сек, 48,0 КГц)
Аудио 2: English (DTS, 6 ch, 1510 Кбит/сек, 48,0 КГц)
Формат субтитров: softsub (SRT)

MediaInfo

Общее
Уникальный идентификатор : 200121524516084183220055936568083396830 (0x968E00EFBE544289BEFBF54A98E0B8DE)
Полное имя : F:Dom.v.konce.ulicy.2012.D.BDRip.1080p.mkv
Формат : Matroska
Размер файла : 12,9 Гбайт
Продолжительность : 1 ч. 41 м.
Общий поток : 18,1 Мбит/сек
Дата кодирования : UTC 2013-03-21 18:26:49
Программа кодирования : mkvmerge v5.2.0 ('I can't explain') built on Dec 18 2011 18:12:03
Библиотека кодирования : libebml v1.2.3 + libmatroska v1.3.0
Видео
Идентификатор : 1
Формат : AVC
Формат/Информация : Advanced Video Codec
Профиль формата : [email protected]
Параметр CABAC формата : Да
Параметр ReFrames формата : 5 кадров
Идентификатор кодека : V_MPEG4/ISO/AVC
Продолжительность : 1 ч. 41 м.
Битрейт : 14,8 Мбит/сек
Ширина : 1920 пикс.
Высота : 800 пикс.
Соотношение сторон : 2,40:1
Частота кадров : 23,976 кадр/сек
Цветовое пространство : YUV
Подвыборка цветности : 4:2:0
Битовая глубина : 8 бит
Тип развёртки : Прогрессивная
Бит/(Пиксели*Кадры) : 0.401
Размер потока : 10,5 Гбайт (81%)
Заголовок : House.At.The.End.Of.The.Street.2012.1080p.BluRay.DTS.x264-DON
Библиотека кодирования : x264 core 129 r2230kMod 1cffe9f
Настройки программы : cabac=1 / ref=5 / deblock=1:-3:-3 / analyse=0x3:0x113 / me=umh / subme=9 / psy=1 / fade_compensate=0.00 / psy_rd=1.15:0.00 / mixed_ref=1 / me_range=16 / chroma_me=1 / trellis=2 / 8x8dct=1 / cqm=0 / deadzone=21,11 / fast_pskip=0 / chroma_qp_offset=-2 / threads=6 / lookahead_threads=1 / sliced_threads=0 / nr=0 / decimate=0 / interlaced=0 / bluray_compat=0 / constrained_intra=0 / bframes=8 / b_pyramid=2 / b_adapt=2 / b_bias=0 / direct=3 / weightb=1 / open_gop=0 / weightp=2 / keyint=250 / keyint_min=23 / scenecut=40 / intra_refresh=0 / rc_lookahead=40 / rc=crf / mbtree=1 / crf=18.0000 / qcomp=0.75 / qpmin=0 / qpmax=69 / qpstep=4 / ip_ratio=1.30 / aq=1:0.80
Язык : English
Аудио #1
Идентификатор : 2
Формат : DTS
Формат/Информация : Digital Theater Systems
Идентификатор кодека : A_DTS
Продолжительность : 1 ч. 41 м.
Вид битрейта : Постоянный
Битрейт : 1510 Кбит/сек
Каналы : 6 каналов
Расположение каналов : Front: L C R, Side: L R, LFE
Частота : 48,0 КГц
Битовая глубина : 16 бит
Метод сжатия : С потерями
Размер потока : 1,07 Гбайт (8%)
Заголовок : DTS 5.1 @ 1536 kbps - Dub, R5
Язык : Russian
Аудио #2
Идентификатор : 3
Формат : DTS
Формат/Информация : Digital Theater Systems
Идентификатор кодека : A_DTS
Продолжительность : 1 ч. 41 м.
Вид битрейта : Постоянный
Битрейт : 1510 Кбит/сек
Каналы : 6 каналов
Расположение каналов : Front: L C R, Side: L R, LFE
Частота : 48,0 КГц
Битовая глубина : 24 бит
Метод сжатия : С потерями
Размер потока : 1,07 Гбайт (8%)
Заголовок : DTS 5.1 @ 1536 kbps
Язык : English
Текст #1
Идентификатор : 4
Формат : UTF-8
Идентификатор кодека : S_TEXT/UTF8
Идентификатор кодека/Информация : UTF-8 Plain Text
Язык : Russian
Текст #2
Идентификатор : 5
Формат : UTF-8
Идентификатор кодека : S_TEXT/UTF8
Идентификатор кодека/Информация : UTF-8 Plain Text
Язык : English
Текст #3
Идентификатор : 6
Формат : UTF-8
Идентификатор кодека : S_TEXT/UTF8
Идентификатор кодека/Информация : UTF-8 Plain Text
Заголовок : SDH
Язык : English
Текст #4
Идентификатор : 7
Формат : UTF-8
Идентификатор кодека : S_TEXT/UTF8
Идентификатор кодека/Информация : UTF-8 Plain Text
Язык : Spanish
Меню
00:00:00.000 : en:00:00:00.000
00:04:30.729 : en:00:04:30.729
00:08:55.160 : en:00:08:55.160
00:13:02.949 : en:00:13:02.949
00:17:14.450 : en:00:17:14.450
00:23:05.342 : en:00:23:05.342
00:28:31.752 : en:00:28:31.752
00:35:37.719 : en:00:35:37.719
00:39:06.427 : en:00:39:06.427
00:42:46.772 : en:00:42:46.772
00:46:20.444 : en:00:46:20.444
00:51:48.772 : en:00:51:48.772
00:59:14.342 : en:00:59:14.342
01:03:59.085 : en:01:03:59.085
01:07:26.334 : en:01:07:26.334
01:11:07.972 : en:01:11:07.972
01:15:20.808 : en:01:15:20.808
01:18:41.091 : en:01:18:41.091
01:23:02.978 : en:01:23:02.978
01:26:48.787 : en:01:26:48.787
01:30:13.825 : en:01:30:13.825
01:31:26.731 : en:01:31:26.731
01:35:31.601 : en:01:35:31.601

Скриншоты

Other forum [Profile] [PM]
Display posts from previous:    
Reply to topic

The time now is: Today 11:22

All times are GMT + 3 Hours



You cannot post new topics in this forum
You cannot reply to topics in this forum
You cannot edit your posts in this forum
You cannot delete your posts in this forum
You cannot vote in polls in this forum
You cannot attach files in this forum
You cannot download files in this forum