Today is a free download without charge Download

Год змеи [email protected]Нижний Новгород 21.03.2013 [2013, Post-grange/alternative rock, HDCamRip]

Reply to topic
 
Author
Message

Omen ®

Longevity: 8 years 4 months

Posts: 181087

Торрент-статистика

Post 29-Mar-2013 01:35

[Quote]

Год змеи [email protected]Нижний Новгород 21.03.2013
Жанр: Post-grange/alternative rock
Продолжительность: 00:51:45
Год выпуска: 2013
Съемка: Tomegatherion & Viktor Song Jat
Описание: http://vk.com/event45279386
Сет-лист:
01 Свободная зона
02 Ангел
03 Тук-тук
04 Малыш
05 Семь жизней
06 Танцуй
07 Икар
08 Против
09 Остаешься один
10 Бей
11 Гарри Поттер
12 С той стороны
13 Тринадцатый патрон
14 Я буду рядом
Качество: HDCamRip
Контейнер: MP4
Видео кодек: H.264
Аудио кодек: AAC
Видео: AVC; 1920x1080 (16:9); 10900 Kbps; 25 fps
Аудио: AAC LC; 253 Kbps; VBR; 2 ch; 16 bit

Отчёт MediaInfo / BDInfo

GeneralComplete name : G:\Torrent\_Мои раздачи\Год змеи 21.03.2013 НН\Год змеи 02 - Ангел.mp4Format : MPEG-4Format profile : Base Media / Version 2Codec ID : mp42File size : 284 MiBDuration : 3mn 34sOverall bit rate mode : VariableOverall bit rate : 11.1 MbpsEncoded date : UTC 2013-03-28 16:57:39Tagged date : UTC 2013-03-28 16:57:42©TIM : 00:00:00:00©TSC : 25©TSZ : 1
VideoID : 1Format : AVCFormat/Info : Advanced Video CodecFormat profile : [email protected] settings, CABAC : YesFormat settings, ReFrames : 3 framesCodec ID : avc1Codec ID/Info : Advanced Video CodingDuration : 3mn 34sBit rate : 10.9 MbpsWidth : 1 920 pixelsHeight : 1 080 pixelsDisplay aspect ratio : 16:9Frame rate mode : ConstantFrame rate : 25.000 fpsStandard : PALColor space : YUVChroma subsampling : 4:2:0Bit depth : 8 bitsScan type : ProgressiveBits/(Pixel*Frame) : 0.210Stream size : 278 MiB (98%)Language : EnglishEncoded date : UTC 2013-03-28 16:57:39Tagged date : UTC 2013-03-28 16:57:39
AudioID : 2Format : AACFormat/Info : Advanced Audio CodecFormat profile : LCCodec ID : 40Duration : 3mn 34sSource duration : 3mn 34sBit rate mode : VariableBit rate : 253 KbpsMaximum bit rate : 301 KbpsChannel(s) : 2 channelsChannel positions : Front: L RSampling rate : 48.0 KHzCompression mode : LossyStream size : 6.47 MiB (2%)Source stream size : 6.47 MiB (2%)Language : EnglishEncoded date : UTC 2013-03-28 16:57:39Tagged date : UTC 2013-03-28 16:57:39mdhd_Duration : 214315

Скриншоты

Other forum [Profile] [PM]
Display posts from previous:    
Reply to topic

The time now is: Today 21:10

All times are GMT + 3 Hours



You cannot post new topics in this forum
You cannot reply to topics in this forum
You cannot edit your posts in this forum
You cannot delete your posts in this forum
You cannot vote in polls in this forum
You cannot attach files in this forum
You cannot download files in this forum