Today is a free download without charge Download

Ry Cooder & V.M. Bhatt - A Meeting By The River (1993) [MP3|320 кб/с]<Indo-Blues>

Reply to topic
 
Author
Message

UndegraundMen ®

Longevity: 8 years 11 months

Posts: 25145

Торрент-статистика

Post 28-Mar-2013 14:38

[Quote]

Ry Cooder & V.M. Bhatt - A Meeting By The River (1993)- Год: 1993
Жанр: Indo-Blues
Продолжительность: 00:38:36
Кодек: MP3
Битрейт: 320 кб/с
Тип битрейта: CBR
Трек лист:
1. A Meeting By The River (9:57)
2. Longing (11:49)
3. Ganges Delta Blues (9:51)
4. Isa Lei (7:35)

mediainfo

Полное имя : D:\MEDIA\Audio\Ry Cooder & V.M. Bhatt\01-a_meeting_by_the_river.mp3
Формат : MPEG Audio
Размер файла : 22,8 Мбайт
Продолжительность : 9 м. 57 с.
Режим общего битрейта : Постоянный
Общий поток : 320 Кбит/сек
Альбом : A Meeting By The River
Альбом/Исполнитель : Ry Cooder & V.M. Bhatt
Трек : A Meeting By The River
Трек/Положение : 1
Исполнитель : Ry Cooder & V.M. Bhatt
Композитор : Ry Cooder/V.M. Bhatt
Издатель : Analogue Productions
Жанр : World
Дата записи : 1993
Библиотека кодирования : LAME3.92UбажG]‰А
Примечание :
Аудио
Формат : MPEG Audio
Версия формата : Version 1
Профиль формата : Layer 3
Режим : Joint stereo
Продолжительность : 9 м. 58 с.
Вид битрейта : Постоянный
Битрейт : 320 Кбит/сек
Каналы : 2 канала
Частота : 44,1 КГц
Метод сжатия : С потерями
Размер потока : 22,8 Мбайт (100%)
Библиотека кодирования : LAME3.92UбажG]‰А
Общее
Полное имя : D:\MEDIA\Audio\Ry Cooder & V.M. Bhatt\02-longing.mp3
Формат : MPEG Audio
Размер файла : 27,1 Мбайт
Продолжительность : 11 м.
Режим общего битрейта : Постоянный
Общий поток : 320 Кбит/сек
Альбом : A Meeting By The River
Альбом/Исполнитель : Ry Cooder & V.M. Bhatt
Трек : Longing
Трек/Положение : 2
Исполнитель : Ry Cooder & V.M. Bhatt
Композитор : Ry Cooder/V.M. Bhatt
Издатель : Analogue Productions
Жанр : World
Дата записи : 1993
Библиотека кодирования : LAMEЄ
Примечание :
Аудио
Формат : MPEG Audio
Версия формата : Version 1
Профиль формата : Layer 3
Режим : Joint stereo
Продолжительность : 11 м.
Вид битрейта : Постоянный
Битрейт : 320 Кбит/сек
Каналы : 2 канала
Частота : 44,1 КГц
Метод сжатия : С потерями
Размер потока : 27,1 Мбайт (100%)
Библиотека кодирования : LAME
Общее
Полное имя : D:\MEDIA\Audio\Ry Cooder & V.M. Bhatt\03-ganges_delta_blues.mp3
Формат : MPEG Audio
Размер файла : 22,6 Мбайт
Продолжительность : 9 м. 51 с.
Режим общего битрейта : Постоянный
Общий поток : 320 Кбит/сек
Альбом : A Meeting By The River
Альбом/Исполнитель : Ry Cooder & V.M. Bhatt
Трек : Ganges Delta Blues
Трек/Положение : 3
Исполнитель : Ry Cooder & V.M. Bhatt
Композитор : Ry Cooder/V.M. Bhatt
Издатель : Analogue Productions
Жанр : World
Дата записи : 1993
Библиотека кодирования : LAMEUU`[email protected]ѓ’‰‚H,8e
Примечание :
Аудио
Формат : MPEG Audio
Версия формата : Version 1
Профиль формата : Layer 3
Режим : Joint stereo
Расширение режима : MS Stereo
Продолжительность : 9 м. 52 с.
Вид битрейта : Постоянный
Битрейт : 320 Кбит/сек
Каналы : 2 канала
Частота : 44,1 КГц
Метод сжатия : С потерями
Размер потока : 22,6 Мбайт (100%)
Библиотека кодирования : LAMEUU`[email protected]ѓ’‰‚H,8e
Общее
Полное имя : D:\MEDIA\Audio\Ry Cooder & V.M. Bhatt\04-isa_lei.mp3
Формат : MPEG Audio
Размер файла : 17,4 Мбайт
Продолжительность : 7 м. 35 с.
Режим общего битрейта : Постоянный
Общий поток : 320 Кбит/сек
Альбом : A Meeting By The River
Альбом/Исполнитель : Ry Cooder & V.M. Bhatt
Трек : Isa Lei
Трек/Положение : 4
Исполнитель : Ry Cooder & V.M. Bhatt
Композитор : A.W. Caten
Издатель : Analogue Productions
Жанр : World
Дата записи : 1993
Библиотека кодирования : LAMEU1‚TWЂFt4> G
Примечание :
Аудио
Формат : MPEG Audio
Версия формата : Version 1
Профиль формата : Layer 3
Режим : Joint stereo
Расширение режима : MS Stereo
Продолжительность : 7 м. 36 с.
Вид битрейта : Постоянный
Битрейт : 320 Кбит/сек
Каналы : 2 канала
Частота : 44,1 КГц
Метод сжатия : С потерями
Размер потока : 17,4 Мбайт (100%)
Библиотека кодирования : LAMEU1‚TWЂFt4> G
Время раздачи: С 08:00 до 24:00
Other forum [Profile] [PM]
Display posts from previous:    
Reply to topic

The time now is: Today 07:29

All times are GMT + 3 Hours



You cannot post new topics in this forum
You cannot reply to topics in this forum
You cannot edit your posts in this forum
You cannot delete your posts in this forum
You cannot vote in polls in this forum
You cannot attach files in this forum
You cannot download files in this forum