Today is a free download without charge Download

Цирк дю Солей: Сказочный мир / Цирк Солнца: Далёкие миры / Cirque du Soleil: Worlds Away (Эндрю Адамсон / Andrew Adamson) [2012, США, фэнтези, BDRip 720p] VO [Kerob] + Sub Rus [3 ver], Eng, Fr, It, Rum + Original Eng

Reply to topic
 
Author
Message

Omen ®

Longevity: 8 years 5 months

Posts: 181087

Торрент-статистика

Post 28-Mar-2013 13:18

[Quote]

Цирк дю Солей: Сказочный мир / Цирк Солнца: Далёкие миры / Cirque du Soleil: Worlds Away (2012) Страна: США USA
Студия: Cirque du Soleil Burlesco, Reel FX Creative Studios, Strange Weather Films, Evil Eye Pictures
Жанр: фэнтези
Год выпуска: 2012
Продолжительность: 01:31:12
Перевод: Любительский (одноголосый) Kerob
Cубтитры: русские (3и версии), английские (color SDH), французские, итальянские, румынские
Оригинальная аудиодорожка: английская
Режиссер и сценарист: Эндрю Адамсон / Andrew Adamson
В ролях: Эрика Линц, Игорь Зарипов, Лутс Халбхюбнер, Джон Кларк, Даллас Барнетт, Таня Дрюери, Сара Хуболт, Аскья Мэйбери, Дэмиен Гордон, Зэк Бриклэнд
Описание: Удивительная история двух влюбленных, которых разлучила судьба, по мотивам лучших шоу Cirque du Soleil. Им придется пройти через многое, чтобы снова быть вместе…
| trailer
Тип релиза: BDRip 720p | Контейнер: MKV
Видео: H.264 (AVC [email protected]) 8 bit, 1280x720, 16:9, 5350 Kbps, 23,976 fps, 0.242 bit/pixel
Аудио RUS: AC3 DD 5.1 48 kHz 448 kbps VO Kerob
Аудио ENG: DTS 5.1 48 kHz 1536 kbps
Формат субтитров:
RUS softsub (SRT) Перевод и адаптация: AlionaMP; Корректировка и редактура: HM
RUS softsub (SRT) Перевод и адаптация: AlionaMP
RUS softsub (SRT) По одноголосой любительской озвучке Kerob'a
ENG softsub (SRT) Color SDH
Fr softsub (SRT)
It softsub (SRT) Traduzione: cerasa [SRT project]
RUM softsub (SRT) Romanian sub by Snake_Eyes

MediaInfo

Cirque.du.Soleil.Worlds.Away.2012.BDRip720p.mkv

Код:
Общее
Уникальный идентификатор : 182858022794906803685585070579698986490 (0x89912C9638FE81EDB66D2DE0B7F16DFA)
Полное имя : ***\Cirque.du.Soleil.Worlds.Away.2012.BDRip720p.mkv
Формат : Matroska
Версия формата : Version 4 / Version 2
Размер файла : 4,65 Гбайт
Продолжительность : 1 ч. 31 м.
Общий поток : 7296 Кбит/сек
Название фильма : /*spam*/
Дата кодирования : UTC 2010-02-22 21:41:31
Программа кодирования : mkvmerge v5.9.0 ('On The Loose') built on Dec 9 2012 15:37:01
Библиотека кодирования : libebml v1.3.0 + libmatroska v1.4.0
Видео
Идентификатор : 1
Формат : AVC
Формат/Информация : Advanced Video Codec
Профиль формата : [email protected]
Параметр CABAC формата : Да
Параметр ReFrames формата : 5 кадров
Идентификатор кодека : V_MPEG4/ISO/AVC
Продолжительность : 1 ч. 31 м.
Битрейт : 5350 Кбит/сек
Ширина : 1280 пикселей
Высота : 720 пикселей
Соотношение сторон : 16:9
Режим частоты кадров : Постоянный
Частота кадров : 23,976 кадра/сек
Цветовое пространство : YUV
Субдискретизация насыщенности : 4:2:0
Битовая глубина : 8 бит
Тип развёртки : Прогрессивная
Бит/(Пиксели*Кадры) : 0.242
Размер потока : 3,31 Гбайт (71%)
Заголовок : AVC [email protected] 8 bit, 1280x720, 16:9, 5350 Kbps, 23,976 fps, 0.242 bit/pixel
Библиотека кодирования : x264 core 129 r2245 bc13772
Настройки программы : cabac=1 / ref=5 / deblock=1:0:0 / analyse=0x3:0x113 / me=umh / subme=8 / psy=1 / psy_rd=1.00:0.00 / mixed_ref=1 / me_range=16 / chroma_me=1 / trellis=1 / 8x8dct=1 / cqm=0 / deadzone=21,11 / fast_pskip=1 / chroma_qp_offset=-2 / threads=12 / lookahead_threads=2 / sliced_threads=0 / nr=0 / decimate=1 / interlaced=0 / bluray_compat=0 / constrained_intra=0 / bframes=3 / b_pyramid=2 / b_adapt=2 / b_bias=0 / direct=3 / weightb=1 / open_gop=0 / weightp=2 / keyint=240 / keyint_min=24 / scenecut=40 / intra_refresh=0 / rc_lookahead=50 / rc=2pass / mbtree=1 / bitrate=5350 / ratetol=1.0 / qcomp=0.60 / qpmin=0 / qpmax=69 / qpstep=4 / cplxblur=20.0 / qblur=0.5 / ip_ratio=1.40 / aq=1:1.00
Язык : English
Default : Да
Forced : Нет
Аудио #1
Идентификатор : 2
Формат : AC-3
Формат/Информация : Audio Coding 3
Расширение режима : CM (complete main)
Параметр Endianness формата : Big
Идентификатор кодека : A_AC3
Продолжительность : 1 ч. 31 м.
Вид битрейта : Постоянный
Битрейт : 448 Кбит/сек
Каналы : 6 каналов
Расположение каналов : Front: L C R, Side: L R, LFE
Частота : 48,0 КГц
Битовая глубина : 16 бит
Метод сжатия : С потерями
Размер потока : 292 Мбайт (6%)
Заголовок : VO Kerob
Язык : Russian
Default : Нет
Forced : Нет
Аудио #2
Идентификатор : 3
Формат : DTS
Формат/Информация : Digital Theater Systems
Режим : 16
Параметр Endianness формата : Big
Идентификатор кодека : A_DTS
Продолжительность : 1 ч. 31 м.
Вид битрейта : Постоянный
Битрейт : 1509 Кбит/сек
Каналы : 6 каналов
Расположение каналов : Front: L C R, Side: L R, LFE
Частота : 48,0 КГц
Битовая глубина : 24 бит
Метод сжатия : С потерями
Размер потока : 984 Мбайт (21%)
Заголовок : DTS 5.1 48 kHz 1536 kbps
Язык : English
Default : Да
Forced : Нет
Текст #1
Идентификатор : 4
Формат : UTF-8
Идентификатор кодека : S_TEXT/UTF8
Идентификатор кодека/Информация : UTF-8 Plain Text
Заголовок : Перевод и адаптация: AlionaMP; Корректировка и редактура: HM
Язык : Russian
Default : Да
Forced : Да
Текст #2
Идентификатор : 5
Формат : UTF-8
Идентификатор кодека : S_TEXT/UTF8
Идентификатор кодека/Информация : UTF-8 Plain Text
Заголовок : Перевод и адаптация: AlionaMP
Язык : Russian
Default : Нет
Forced : Нет
Текст #3
Идентификатор : 6
Формат : UTF-8
Идентификатор кодека : S_TEXT/UTF8
Идентификатор кодека/Информация : UTF-8 Plain Text
Заголовок : По одноголосой любительской озвучке Kerob'a
Язык : Russian
Default : Нет
Forced : Нет
Текст #4
Идентификатор : 7
Формат : UTF-8
Идентификатор кодека : S_TEXT/UTF8
Идентификатор кодека/Информация : UTF-8 Plain Text
Заголовок : Color SDH
Язык : English
Default : Нет
Forced : Нет
Текст #5
Идентификатор : 8
Формат : UTF-8
Идентификатор кодека : S_TEXT/UTF8
Идентификатор кодека/Информация : UTF-8 Plain Text
Язык : French
Default : Нет
Forced : Нет
Текст #6
Идентификатор : 9
Формат : UTF-8
Идентификатор кодека : S_TEXT/UTF8
Идентификатор кодека/Информация : UTF-8 Plain Text
Заголовок : Traduzione: cerasa [SRT project]
Язык : Italian
Default : Нет
Forced : Нет
Текст #7
Идентификатор : 10
Формат : UTF-8
Идентификатор кодека : S_TEXT/UTF8
Идентификатор кодека/Информация : UTF-8 Plain Text
Заголовок : Romanian sub by Snake_Eyes
Язык : Romanian
Default : Нет
Forced : Нет
Меню
00:00:00.000 : en:00:00:00.000
00:07:01.921 : en:00:07:01.921
00:14:47.678 : en:00:14:47.678
00:18:59.138 : en:00:18:59.138
00:28:03.473 : en:00:28:03.473
00:37:52.187 : en:00:37:52.187
00:44:06.602 : en:00:44:06.602
00:46:47.263 : en:00:46:47.263
00:51:06.563 : en:00:51:06.563
00:55:44.758 : en:00:55:44.758
00:58:59.953 : en:00:58:59.953
01:03:59.836 : en:01:03:59.836
01:11:15.229 : en:01:11:15.229
01:20:49.845 : en:01:20:49.845

Cirque.du.Soleil.Worlds.Away.2012.720p.BluRay.DTS.mkv (original)

Код:
Общее
Уникальный идентификатор : 170973055440649593958990737133900460224 (0x80A0367488734AC8ACB6BBE355C4F0C0)
Полное имя : ***\Cirque.du.Soleil.Worlds.Away.2012.720p.BluRay.DTS.mkv
Формат : Matroska
Версия формата : Version 2
Размер файла : 4,36 Гбайт
Продолжительность : 1 ч. 31 м.
Общий поток : 6848 Кбит/сек
Дата кодирования : UTC 2013-03-03 17:04:38
Программа кодирования : mkvmerge v4.9.1 ('Ich will') built on Jul 11 2011 23:53:15
Библиотека кодирования : libebml v1.2.1 + libmatroska v1.1.1
Видео
Идентификатор : 1
Формат : AVC
Формат/Информация : Advanced Video Codec
Профиль формата : [email protected]
Параметр CABAC формата : Да
Параметр ReFrames формата : 5 кадров
Идентификатор кодека : V_MPEG4/ISO/AVC
Продолжительность : 1 ч. 31 м.
Битрейт : 5350 Кбит/сек
Ширина : 1280 пикселей
Высота : 720 пикселей
Соотношение сторон : 16:9
Режим частоты кадров : Постоянный
Частота кадров : 23,976 кадра/сек
Цветовое пространство : YUV
Субдискретизация насыщенности : 4:2:0
Битовая глубина : 8 бит
Тип развёртки : Прогрессивная
Бит/(Пиксели*Кадры) : 0.242
Размер потока : 3,31 Гбайт (76%)
Библиотека кодирования : x264 core 129 r2245 bc13772
Настройки программы : cabac=1 / ref=5 / deblock=1:0:0 / analyse=0x3:0x113 / me=umh / subme=8 / psy=1 / psy_rd=1.00:0.00 / mixed_ref=1 / me_range=16 / chroma_me=1 / trellis=1 / 8x8dct=1 / cqm=0 / deadzone=21,11 / fast_pskip=1 / chroma_qp_offset=-2 / threads=12 / lookahead_threads=2 / sliced_threads=0 / nr=0 / decimate=1 / interlaced=0 / bluray_compat=0 / constrained_intra=0 / bframes=3 / b_pyramid=2 / b_adapt=2 / b_bias=0 / direct=3 / weightb=1 / open_gop=0 / weightp=2 / keyint=240 / keyint_min=24 / scenecut=40 / intra_refresh=0 / rc_lookahead=50 / rc=2pass / mbtree=1 / bitrate=5350 / ratetol=1.0 / qcomp=0.60 / qpmin=0 / qpmax=69 / qpstep=4 / cplxblur=20.0 / qblur=0.5 / ip_ratio=1.40 / aq=1:1.00
Язык : English
Default : Да
Forced : Нет
Аудио
Идентификатор : 2
Формат : DTS
Формат/Информация : Digital Theater Systems
Режим : 16
Параметр Endianness формата : Big
Идентификатор кодека : A_DTS
Продолжительность : 1 ч. 31 м.
Вид битрейта : Постоянный
Битрейт : 1509 Кбит/сек
Каналы : 6 каналов
Расположение каналов : Front: L C R, Side: L R, LFE
Частота : 48,0 КГц
Битовая глубина : 24 бит
Метод сжатия : С потерями
Размер потока : 984 Мбайт (22%)
Язык : English
Default : Да
Forced : Нет
Текст
Идентификатор : 3
Формат : UTF-8
Идентификатор кодека : S_TEXT/UTF8
Идентификатор кодека/Информация : UTF-8 Plain Text
Заголовок : Romanian
Язык : Romanian
Default : Да
Forced : Нет
Меню
00:00:00.000 : en:00:00:00.000
00:07:01.921 : en:00:07:01.921
00:14:47.678 : en:00:14:47.678
00:18:59.138 : en:00:18:59.138
00:28:03.473 : en:00:28:03.473
00:37:52.187 : en:00:37:52.187
00:44:06.602 : en:00:44:06.602
00:46:47.263 : en:00:46:47.263
00:51:06.563 : en:00:51:06.563
00:55:44.758 : en:00:55:44.758
00:58:59.953 : en:00:58:59.953
01:03:59.836 : en:01:03:59.836
01:11:15.229 : en:01:11:15.229
01:20:49.845 : en:01:20:49.845

Доп. информация

Cirque.du.Soleil.Worlds.Away.2012.720p.BluRay.DTS.mkv + rus VO + rus sub + other sub-http://ru.wikipedia.org/wiki/Cirque_du_Soleil
Other forum [Profile] [PM]
Display posts from previous:    
Reply to topic

The time now is: Today 11:14

All times are GMT + 3 Hours



You cannot post new topics in this forum
You cannot reply to topics in this forum
You cannot edit your posts in this forum
You cannot delete your posts in this forum
You cannot vote in polls in this forum
You cannot attach files in this forum
You cannot download files in this forum