Today is a free download without charge Download

Вий / Вiй (Алла Грачева, Леонид Зарубин) [1996, мультфильм, короткометражка, ужасы, фэнтези, драма, DVDRip] MVO + Dub + VO

Reply to topic
 
Author
Message

Omen ®

Longevity: 7 years 11 months

Posts: 181087

Торрент-статистика

Post 28-Mar-2013 13:18

[Quote]

Вий / Вiй
Страна: Украина
Жанр: мультфильм, короткометражка, ужасы, фэнтези, драма
Продолжительность: 00:19:18
Год выпуска: 1996
Перевод (1): Профессиональный (многоголосый закадровый)
Перевод (2): Профессиональный (дублированный)
Перевод (3): Оригинал(Украинский)
Русские субтитры: нет
Режиссёр: Алла Грачева, Леонид Зарубин
Роли озвучивали: Б. Бенюк, И. Кадубец, Н. Сумська, В. Мазур
(В дубляже большую часть ролей озвучивает Борис Клюев)
Описание: Студент-богослов Хома Брут должен провести несколько ночей у гроба умершей панночки в старой церквушке в далекой деревне. Сможет ли он побороть свой страх, или ему придется столкнуться с нечистой силой?..
Доп. информация: Самое лучшее качество мультфильма которое можно найти в сети, дорожки накладывал сам , из первой дорожки с удален весь шум .
Качество: DVDRip
Формат: AVI
Видео: 720x544 (1.32:1), 25 fps, DivX Codec 6.1.1 ~1610 kbps avg, 0.16 bit/pixel
Аудио: 44.1 kHz;MP3; 2 ch; 192.00 kbps avg
Аудио 2: 44.1 kHz;MP3; 2 ch; 192.00 kbps avg
Аудио 3: 48 kHz;MP3; 2 ch; 192.00 kbps avg
Субтитры: отсутствуют

Подробные технические данные

Stream size : 222 MiB (73%)Writing library : DivX 6.1.1 (UTC 2006-02-01)
Audio #1ID : 1Format : MPEG AudioFormat version : Version 1Format profile : Layer 3Mode : Joint stereoMode extension : MS StereoCodec ID : 55Codec ID/Hint : MP3Duration : 19mn 18sBit rate mode : ConstantBit rate : 192 KbpsChannel(s) : 2 channelsSampling rate : 44.1 KHzCompression mode : LossyStream size : 26.5 MiB (9%)Alignment : Split accross interleavesInterleave, duration : 40 ms (1.00 video frame)Interleave, preload duration : 500 msWriting library : LAME3.98.2
Audio #2ID : 2Format : MPEG AudioFormat version : Version 1Format profile : Layer 3Mode : Joint stereoMode extension : MS StereoCodec ID : 55Codec ID/Hint : MP3Duration : 19mn 16sBit rate mode : ConstantBit rate : 192 KbpsChannel(s) : 2 channelsSampling rate : 44.1 KHzCompression mode : LossyStream size : 26.5 MiB (9%)Alignment : Split accross interleavesInterleave, duration : 40 ms (1.00 video frame)Interleave, preload duration : 500 msWriting library : LAME3.98.2
Audio #3ID : 3Format : MPEG AudioFormat version : Version 1Format profile : Layer 3Mode : Joint stereoMode extension : MS StereoCodec ID : 55Codec ID/Hint : MP3Duration : 19mn 18sBit rate mode : ConstantBit rate : 192 KbpsChannel(s) : 2 channelsSampling rate : 48.0 KHzCompression mode : LossyStream size : 26.5 MiB (9%)Alignment : Aligned on interleavesInterleave, duration : 40 ms (1.00 video frame)Interleave, preload duration : 504 msWriting library : LAME3.98.2

Скриншоты

Other forum [Profile] [PM]
Display posts from previous:    
Reply to topic

The time now is: Today 11:11

All times are GMT + 3 Hours



You cannot post new topics in this forum
You cannot reply to topics in this forum
You cannot edit your posts in this forum
You cannot delete your posts in this forum
You cannot vote in polls in this forum
You cannot attach files in this forum
You cannot download files in this forum