Today is a free download without charge Download

Чума (Дмитрий Такайшвили) [1983, рисованный, SATRip]

Reply to topic
 
Author
Message

Omen ®

Longevity: 7 years 11 months

Posts: 181087

Торрент-статистика

Post 28-Mar-2013 13:18

[Quote]

Чума
Страна: СССР
Жанр: рисованный
Продолжительность: 00:09:40
Год выпуска: 1983
Русские субтитры: нет
Режиссёр: Дмитрий Такайшвили
Роли озвучивали: без монологов и диалогов
Описание: Фильм-притча о фашистской угрозе
Доп. информация: сценарист Теймураз Сихарулидзе
художник-постановщик Теймураз Сихарулидзе
композитор Т. Бакурадзе
Семпл: http://yadi.sk/d/Q91Tobfh3b73g
Качество: SATRip
Формат: AVI
Видео: XVID 720х480 29.970 fps 4 746 Kbps
Аудио: MP3 44.1 KHz 2 channels 192 Kbps
Субтитры: отсутствуют

Подробные технические данные

GeneralComplete name : C:\Users\Саша\Downloads\mult\chuma.aviFormat : AVIFormat/Info : Audio Video InterleaveFile size : 342 MiBDuration : 9mn 40sOverall bit rate : 4 950 KbpsWriting application : VirtualDubMod 1.5.10.2 (build 2540/release)Writing library : VirtualDubMod build 2540/release
VideoID : 0Format : MPEG-4 VisualFormat profile : Advanced [email protected] settings, BVOP : NoFormat settings, QPel : NoFormat settings, GMC : No warppointsFormat settings, Matrix : Default (MPEG)Codec ID : XVIDCodec ID/Hint : XviDDuration : 9mn 40sBit rate : 4 746 KbpsWidth : 720 pixelsHeight : 480 pixelsDisplay aspect ratio : 1.500Frame rate : 29.970 fpsStandard : NTSCResolution : 8 bitsColorimetry : 4:2:0Scan type : ProgressiveBits/(Pixel*Frame) : 0.458Stream size : 328 MiB (96%)Writing library : XviD 1.2.1 (UTC 2008-12-04)
AudioID : 1Format : MPEG AudioFormat version : Version 1Format profile : Layer 3Codec ID : 55Codec ID/Hint : MP3Duration : 9mn 40sBit rate mode : ConstantBit rate : 192 KbpsChannel(s) : 2 channelsSampling rate : 44.1 KHzStream size : 13.3 MiB (4%)Alignment : Split accross interleavesInterleave, duration : 33 ms (1.00 video frame)Interleave, preload duration : 500 msWriting library : LAMELAME_MAJOR_VERSI

Скриншоты





Other forum [Profile] [PM]
Display posts from previous:    
Reply to topic

The time now is: Today 07:43

All times are GMT + 3 Hours



You cannot post new topics in this forum
You cannot reply to topics in this forum
You cannot edit your posts in this forum
You cannot delete your posts in this forum
You cannot vote in polls in this forum
You cannot attach files in this forum
You cannot download files in this forum