Today is a free download without charge Download

Papa Roach - Live at Club Nokia, Los Angeles, CA, USA 2/13/2013 [2013, Hard rock, nu metal, alternative metal, alternativ, HDTV 1080i]

Reply to topic
 
Author
Message

Omen ®

Longevity: 8 years 3 months

Posts: 181087

Торрент-статистика

Post 28-Mar-2013 13:18

[Quote]

Papa Roach - Live at Club Nokia, Los Angeles, CA, USA 2/13/2013
Жанр: Hard rock, nu metal, alternative metal, alternativ
Продолжительность: 01:12:30
Год выпуска: 2013
Описание: Для тех, кто помнит Papa Roach, как группу, которая сделала песню "Last Resort" несколько лет назад. Papa Roach стали общим знаменателем для успешных гастролей рок в последние годы и критиков во всем мире восхваление их как "лучшая концертная группа". Последнего альбома группы, подключения был выпущен в октябре 2012 года Eleven Seven Music, и дебютировал в топ-20 на Billboard Top 200. Известный их электрификации и взрывных концертов, Papa Roach не разочаровал В этот вечер в Лос-Анджелесе. Концерт прошел в клубе Nokia, Los Angeles, CA, USA 2/13/2013
Качество: HDTV 1080i
Контейнер: TS
Видео кодек: MPEG2
Аудио кодек: AC3
Видео: MPEG2 Video 1920x1080 29.97fps 65000kbps
Аудио: Dolby AC3 48000Hz 6ch 384kbps

Tracklist:

01. Still Swingin'
02. Blood Brothers
03. Give Me Back My Life
04. Between Angels and Insects
05. Where Did the Angels Go?
06. Forever
07. Before I Die
08. Burn
09. ...To Be Loved
10. Getting Away With Murder
11. Alive (N' Out of Control)
12. Silence Is the Enemy
13. Scars
14. Lifeline
15. Dead Cell
16. Last Resort

Отчёт MediaInfo / BDInfo

C:\Users\....\Downloads\Papa_Roach-Club_Nokia_2013-02-13.ts General #1 ID : 1 (0x1) Complete name : C:\Users\....\Downloads\Papa_Roach-Club_Nokia_2013-02-13.ts Format : MPEG-TS File size : 9.06 GiB Duration : 1h 12mn Overall bit rate mode : Variable Overall bit rate : 17.9 Mbps Video #6081 ID : 6081 (0x17C1) Menu ID : 1 (0x1) Format : MPEG Video Format version : Version 2 Format profile : [email protected] Format settings, BVOP : Yes Format settings, Matrix : Custom Format settings, GOP : M=3, N=15 Codec ID : 2 Duration : 1h 12mn Bit rate mode : Variable Bit rate : 16.6 Mbps Maximum bit rate : 65.0 Mbps Width : 1 920 pixels Height : 1 080 pixels Display aspect ratio : 16:9 Frame rate : 29.970 fps Color space : YUV Chroma subsampling : 4:2:0 Bit depth : 8 bits Scan type : Interlaced Scan order : Top Field First Compression mode : Lossy Bits/(Pixel*Frame) : 0.267 Stream size : 8.42 GiB (93%) Audio #6083 ID : 6083 (0x17C3) Menu ID : 1 (0x1) Format : AC-3 Format/Info : Audio Coding 3 Mode extension : CM (complete main) Format settings, Endianness : Big Codec ID : 129 Duration : 1h 12mn Bit rate mode : Constant Bit rate : 384 Kbps Channel(s) : 6 channels Channel positions : Front: L C R, Side: L R, LFE Sampling rate : 48.0 KHz Bit depth : 16 bits Compression mode : Lossy Stream size : 199 MiB (2%) Language : English

Скриншоты

Other forum [Profile] [PM]
Display posts from previous:    
Reply to topic

The time now is: Today 21:46

All times are GMT + 3 Hours



You cannot post new topics in this forum
You cannot reply to topics in this forum
You cannot edit your posts in this forum
You cannot delete your posts in this forum
You cannot vote in polls in this forum
You cannot attach files in this forum
You cannot download files in this forum