Today is a free download without charge Download

Город наизнанку: Древний город: Рим / Strip The City: Ancient City: Rome (2013) SATRip

Reply to topic
 
Author
Message

UndegraundMen ®

Longevity: 7 years 7 months

Posts: 25145

Торрент-статистика

Post 28-Mar-2013 11:34

[Quote]

Город наизнанку: Древний город: Рим / Strip The City: Ancient City: Rome (2013) SATRip- Русское название: Город наизнанку: Древний город: Рим
Оригинальное название: Strip The City: Ancient City: Rome
Режиссер / Телекомпания: Discovery Channel
Год выпуска: 2013
Жанр: Документальный
Описание:
Прототипом для всех современных городов является именно эта древняя цивилизация - Рим. 2000 лет назад он был самым большим городом в мире, население которого составляло миллион человек. Рим был первым, настолько большим городом в истории человечества, и его величество не иссякло по сей день. Как же римляне добились этого? Чтобы узнать это мы вывернем город наизнанку. Обнажим все его скрытые внутренние ресурсы и покажем Вам гениальную технологию, которая позволила инженерам возвести этот вечный город..
Продолжительность: 00:43:44
Перевод: Одноголосый закадровый, профессиональный
Видеокодек: Xvid
Битрейт видео: ~1498 Кбит/сек
Размер кадра: 720x400
Качество видео: SATRip
Аудиокодек: MP3, 2 канала
Битрейт аудио: 256 Кбит/сек
Скриншоты:
       
       

MediaInfo

Общее
Полное имя : H:\ДОКУМЕНТАЛКИ\Strip The City - Ancient City - Rome.avi
Формат : AVI
Формат/Информация : Audio Video Interleave
Размер файла : 553 Мбайт
Продолжительность : 43 м.
Общий поток : 1767 Кбит/сек
Программа кодирования : Lavf52.94.0
Видео
Идентификатор : 0
Формат : MPEG-4 Visual
Профиль формата : [email protected]
Параметр BVOP формата : Нет
Параметр QPel формата : Нет
Параметр GMC формата : Без точки перехода
Параметр матрицы формата : Default (H.263)
Идентификатор кодека : XVID
Идентификатор кодека/Подсказка : XviD
Продолжительность : 43 м.
Битрейт : 1498 Кбит/сек
Ширина : 720 пикселей
Высота : 400 пикселей
Соотношение сторон : 16:9
Частота кадров : 25,000 кадров/сек
Цветовое пространство : YUV
Субдискретизация насыщенности : 4:2:0
Битовая глубина : 8 бит
Тип развёртки : Прогрессивная
Метод сжатия : С потерями
Бит/(Пиксели*Кадры) : 0.208
Размер потока : 469 Мбайт (85%)
Библиотека кодирования : XviD 1.2.1 (UTC 2008-12-04)
Аудио
Идентификатор : 1
Формат : MPEG Audio
Версия формата : Version 1
Профиль формата : Layer 3
Режим : Joint stereo
Идентификатор кодека : 55
Идентификатор кодека/Подсказка : MP3
Продолжительность : 43 м.
Вид битрейта : Постоянный
Битрейт : 256 Кбит/сек
Каналы : 2 канала
Частота : 48,0 КГц
Метод сжатия : С потерями
Размер потока : 80,2 Мбайт (14%)
Выравнивание : Соединение по промежуткам
Продолжительность промежутка : 24 мс. (0,60 видеокадр)
Библиотека кодирования : LAME3.98.4ЄЄЄЄЄЄЄЄЄЄ
Время раздачи: с 9:00 до 21:00 по МСК
Other forum [Profile] [PM]
Similar theme
Forum Topic Author Torrent Replies Last Post
./templates/default/images/folder_dl.gif Приключения и квесты Small Town Terrors 3 Galdors Bluff Sammleredition / Террор в городке 3 Блеф Галдора Коллекционное издание [P] [RUS] (2015) Omen
1 | 0

0 | 2154

24

2015-06-13 15:00
Omen Latest
./templates/default/images/folder_dl.gif Зарубежное кино (HD Video) Хроники хищных городов / Mortal Engines (Кристиан Риверс) [2018 г., Фантастика, фэнтези, боевик, триллер, приключения, WEBRip 1080p] | DUB (Чистый звук) Theseus
1 | 0

0 | 1102

14

2019-01-26 02:01
Theseus Latest
Display posts from previous:    
Reply to topic

The time now is: Today 02:23

All times are GMT + 3 Hours



You cannot post new topics in this forum
You cannot reply to topics in this forum
You cannot edit your posts in this forum
You cannot delete your posts in this forum
You cannot vote in polls in this forum
You cannot attach files in this forum
You cannot download files in this forum