Today is a free download without charge Download

Цирк дю Солей: Сказочный мир / Cirque du Soleil: Worlds Away (Эндрю Адамсон / Andrew Adamson) [2012, США, фэнтези, BDRip 720p] VO (Kerob) + Original Eng + Sub Eng

Reply to topic
 
Author
Message

Omen ®

Longevity: 8 years 5 months

Posts: 181087

Торрент-статистика

Post 28-Mar-2013 04:58

[Quote]

Цирк дю Солей: Сказочный мир / Cirque du Soleil: Worlds Away-Страна: США
Студия: Reel FX Creative Studios
Жанр: фэнтези
Год выпуска: 2012
Продолжительность: 01:31:22
Перевод: Любительский (одноголосый) [Kerob]
Cубтитры: Английские
Оригинальная аудиодорожка: английский
Режиссер: Эндрю Адамсон / Andrew Adamson
В ролях: Эрика Линц, Игорь Зарипов, Лутс Халбхюбнер, Джон Кларк, Даллас Барнетт, Таня Дрюери, Сара Хуболт, Аскья Мэйбери, Дэмиен Гордон, Зэк Бриклэнд
Описание: Удивительная история двух влюбленных, которых разлучила судьба, им придется пройти через многое, чтобы снова быть вместе... По мотивам лучших шоу Cirque du Soleil.
Формат: MKV
Качество: BDRip 720p
Видео: 1280 x 720 (1.778) at 23.976 fps, AVC at 4680 Кбит/сек
Аудио 1: Russian: AC3, 448 Kb/s (6 ch) 48,0 КГц
Аудио 2: English: DTS, 1510 Kb/s (6 ch) 48,0 КГц
Субтитры: English
Размер: 4.20 Gb
Релиз: Uniongang -Семпл-

MediaInfo

Общее
Уникальный идентификатор : 239310118817744644937938632349946103612 (0xB40973CF5887D9B698ECCB7BB8BE473C)
Полное имя : Cirque.du.Soleil.Worlds.Away.2012.BDRip.L1.720p.UNIONGANG.mkv
Формат : Matroska
Версия формата : Version 2
Размер файла : 4,20 Гбайт
Продолжительность : 1 ч. 31 м.
Общий поток : 6592 Кбит/сек
Название фильма : UNIONGANG.tv
Дата кодирования : UTC 2013-03-26 14:20:14
Программа кодирования : mkvmerge v5.8.0 ('No Sleep / Pillow') built on Sep 2 2012 15:37:04
Библиотека кодирования : libebml v1.2.3 + libmatroska v1.3.0
Видео
Идентификатор : 1
Формат : AVC
Формат/Информация : Advanced Video Codec
Профиль формата : [email protected]
Параметр CABAC формата : Да
Параметр ReFrames формата : 11 кадров
Идентификатор кодека : V_MPEG4/ISO/AVC
Продолжительность : 1 ч. 31 м.
Битрейт : 4680 Кбит/сек
Ширина : 1280 пикселей
Высота : 720 пикселей
Соотношение сторон : 16:9
Режим частоты кадров : Постоянный
Частота кадров : 23,976 кадра/сек
Цветовое пространство : YUV
Субдискретизация насыщенности : 4:2:0
Битовая глубина : 8 бит
Тип развёртки : Прогрессивная
Бит/(Пиксели*Кадры) : 0.212
Размер потока : 2,87 Гбайт (68%)
Заголовок : Cirque du Soleil Worlds Away (2012) BDRip_720p_UNIONGANG
Библиотека кодирования : x264 core 125 r2200 999b753
Настройки программы : cabac=1 / ref=11 / deblock=1:-3:-3 / analyse=0x3:0x113 / me=umh / subme=11 / psy=1 / psy_rd=1.15:1.00 / mixed_ref=1 / me_range=32 / chroma_me=1 / trellis=2 / 8x8dct=1 / cqm=0 / deadzone=21,11 / fast_pskip=0 / chroma_qp_offset=-4 / threads=6 / lookahead_threads=1 / sliced_threads=0 / nr=0 / decimate=1 / interlaced=0 / bluray_compat=0 / constrained_intra=0 / bframes=9 / b_pyramid=2 / b_adapt=2 / b_bias=0 / direct=3 / weightb=1 / open_gop=0 / weightp=2 / keyint=250 / keyint_min=23 / scenecut=40 / intra_refresh=0 / rc=2pass / mbtree=0 / bitrate=4680 / ratetol=1.0 / qcomp=0.65 / qpmin=0 / qpmax=69 / qpstep=4 / cplxblur=20.0 / qblur=0.5 / ip_ratio=1.40 / pb_ratio=1.30 / aq=1:1.00
Язык : English
Default : Да
Forced : Нет
Аудио #1
Идентификатор : 2
Формат : AC-3
Формат/Информация : Audio Coding 3
Расширение режима : CM (complete main)
Параметр Endianness формата : Big
Идентификатор кодека : A_AC3
Продолжительность : 1 ч. 31 м.
Вид битрейта : Постоянный
Битрейт : 448 Кбит/сек
Каналы : 6 каналов
Расположение каналов : Front: L C R, Side: L R, LFE
Частота : 48,0 КГц
Битовая глубина : 16 бит
Метод сжатия : С потерями
Размер потока : 292 Мбайт (7%)
Язык : Russian
Default : Нет
Forced : Нет
Аудио #2
Идентификатор : 3
Формат : DTS
Формат/Информация : Digital Theater Systems
Режим : 16
Параметр Endianness формата : Big
Идентификатор кодека : A_DTS
Продолжительность : 1 ч. 31 м.
Вид битрейта : Постоянный
Битрейт : 1509 Кбит/сек
Каналы : 6 каналов
Расположение каналов : Front: L C R, Side: L R, LFE
Частота : 48,0 КГц
Битовая глубина : 24 бит
Метод сжатия : С потерями
Размер потока : 984 Мбайт (23%)
Язык : English
Default : Нет
Forced : Нет
Текст
Идентификатор : 4
Формат : UTF-8
Идентификатор кодека : S_TEXT/UTF8
Идентификатор кодека/Информация : UTF-8 Plain Text
Язык : English
Default : Нет
Forced : Нет
Меню
00:00:00.000 : en:00:00:00.000
00:07:01.921 : en:00:07:01.921
00:14:47.678 : en:00:14:47.678
00:18:59.138 : en:00:18:59.138
00:28:03.473 : en:00:28:03.473
00:37:52.187 : en:00:37:52.187
00:44:06.602 : en:00:44:06.602
00:46:47.263 : en:00:46:47.263
00:51:06.563 : en:00:51:06.563
00:55:44.758 : en:00:55:44.758
00:58:59.953 : en:00:58:59.953
01:03:59.836 : en:01:03:59.836
01:11:15.229 : en:01:11:15.229
01:20:49.845 : en:01:20:49.845

Скриншоты

Other forum [Profile] [PM]
Display posts from previous:    
Reply to topic

The time now is: Today 12:12

All times are GMT + 3 Hours



You cannot post new topics in this forum
You cannot reply to topics in this forum
You cannot edit your posts in this forum
You cannot delete your posts in this forum
You cannot vote in polls in this forum
You cannot attach files in this forum
You cannot download files in this forum