Today is a free download without charge Download

В финале Джон умрет / John Dies at the End (Дон Коскарелли / Don Coscarelli) [2012, США, ужасы, фэнтези, комедия, BDRip 720p] DVO (den904, DeadSno) + VO (acolith) + Original (Eng) + Subs (Rus, Eng)

Reply to topic
 
Author
Message

Omen ®

Longevity: 8 years 5 months

Posts: 181087

Торрент-статистика

Post 28-Mar-2013 04:58

[Quote]

В финале Джон умрет / John Dies at the End Страна: США
Студия: M3 Alliance, M3 Creative, ...
Жанр: ужасы, фэнтези, комедия
Год выпуска: 2012
Продолжительность: 01:39:32
Перевод:
  • Любительский (двухголосый закадровый) den904, DeadSno // Перевод: Janetta
  • Одноголосый закадровый acolith
Cубтитры: русские (jerichOne, trashcan), английские, английские (SDH)
Оригинальная аудиодорожка: английский
Режиссер: Дон Коскарелли / Don Coscarelli
В ролях: Чейз Уильямсон, Роб Майес, Пол Джаматти, Клэнси Браун, Глинн Тёрмен, Даг Джонс, Дэниэл Робак, Фаббианн Терез, Джонни Уэстон, Джимми Вонг
Описание:
Новый препарат, наркотик, наводнил улицы, его действие — просто сумашествие, но есть один страшный побочный эффект — после употребления не все возвращаются в реальный мир людьми… Два друга, Джон и Дэвид, оказываются ввязаны в историю с адским препаратом и вынуждены противостоять надвигающемуся ужасу так спешащему выбраться в наш мир через эту дрянь.
- -Тип релиза: BDRip 720p (рип от HDWing)
Контейнер: MKV
Видео: AVC (x264), 1280x720 (16:9) at 23,976 fps, 5200 Кbps, 0.235 bpp
Аудио 1: DTS; 1536 Kbps; CBR; 6 ch; 48 khz; 24 bit | DVO - den904, DeadSno |
Аудио 2: DTS; 1536 Kbps; CBR; 6 ch; 48 khz; 24 bit | VO - acolith |
Аудио 3: DTS; 1536 Kbps; CBR; 6 ch; 48 khz; 24 bit | Английский |
Формат субтитров: softsub (SRT)

Скриншоты || x264 Info || MediaInfo || Notes

MediaInfo

Код:
Общее
Уникальный идентификатор                 : 246239832623812872183982252621157195012 (0xB94011143DD08A1B93CA54F241415D04)
Полное имя                               : В финале Джон умрёт.2012.DVO.720p.BluRay.x264-HDWing.mkv
Формат                                   : Matroska
Версия формата                           : Version 4 / Version 2
Размер файла                             : 6,76 Гбайт
Продолжительность                        : 1 ч. 39 м.
Общий поток                              : 9728 Кбит/сек
Название фильма                          : profile.php?mode=viewprofile&u=22488948
Дата кодирования                         : UTC 2013-03-26 13:24:13
Программа кодирования                    : mkvmerge v6.1.0 ('Old Devil') built on Mar  2 2013 14:32:37
Библиотека кодирования                   : libebml v1.3.0 + libmatroska v1.4.0
Видео
Идентификатор                            : 1
Формат                                   : AVC
Формат/Информация                        : Advanced Video Codec
Профиль формата                          : [email protected]
Параметр CABAC формата                   : Да
Параметр ReFrames формата                : 9 кадров
Идентификатор кодека                     : V_MPEG4/ISO/AVC
Продолжительность                        : 1 ч. 39 м.
Битрейт                                  : 5200 Кбит/сек
Ширина                                   : 1280 пикселей
Высота                                   : 720 пикселей
Соотношение сторон                       : 16:9
Режим частоты кадров                     : Постоянный
Частота кадров                           : 23,976 кадра/сек
Цветовое пространство                    : YUV
Субдискретизация насыщенности            : 4:2:0
Битовая глубина                          : 8 бит
Тип развёртки                            : Прогрессивная
Бит/(Пиксели*Кадры)                      : 0.235
Размер потока                            : 3,48 Гбайт (51%)
Заголовок                                : [email protected]
Библиотека кодирования                   : x264 core 129 r2245 bc13772
Настройки программы                      : cabac=1 / ref=9 / deblock=1:-3:-3 / analyse=0x3:0x133 / me=umh / subme=11 / psy=1 / psy_rd=1.10:0.10 / mixed_ref=1 / me_range=32 / chroma_me=1 / trellis=2 / 8x8dct=1 / cqm=0 / deadzone=21,11 / fast_pskip=0 / chroma_qp_offset=-2 / threads=6 / lookahead_threads=1 / sliced_threads=0 / nr=0 / decimate=1 / interlaced=0 / bluray_compat=0 / constrained_intra=0 / bframes=8 / b_pyramid=2 / b_adapt=2 / b_bias=0 / direct=3 / weightb=1 / open_gop=0 / weightp=2 / keyint=250 / keyint_min=23 / scenecut=40 / intra_refresh=0 / rc_lookahead=40 / rc=2pass / mbtree=0 / bitrate=5200 / ratetol=1.0 / qcomp=0.70 / qpmin=0 / qpmax=69 / qpstep=4 / cplxblur=20.0 / qblur=0.5 / vbv_maxrate=40000 / vbv_bufsize=30000 / nal_hrd=none / ip_ratio=1.40 / pb_ratio=1.30 / aq=2:0.90
Язык                                     : English
Default                                  : Да
Forced                                   : Нет
Аудио #1
Идентификатор                            : 2
Формат                                   : DTS
Формат/Информация                        : Digital Theater Systems
Режим                                    : 16
Параметр Endianness формата              : Big
Идентификатор кодека                     : A_DTS
Продолжительность                        : 1 ч. 39 м.
Вид битрейта                             : Постоянный
Битрейт                                  : 1510 Кбит/сек
Каналы                                   : 6 каналов
Расположение каналов                     : Front: L C R, Side: L R, LFE
Частота                                  : 48,0 КГц
Битовая глубина                          : 24 бит
Метод сжатия                             : С потерями
Размер потока                            : 1,05 Гбайт (16%)
Заголовок                                : DVO [den904, DeadSno]
Язык                                     : Russian
Default                                  : Да
Forced                                   : Нет
Аудио #2
Идентификатор                            : 3
Формат                                   : DTS
Формат/Информация                        : Digital Theater Systems
Режим                                    : 16
Параметр Endianness формата              : Big
Идентификатор кодека                     : A_DTS
Продолжительность                        : 1 ч. 39 м.
Вид битрейта                             : Постоянный
Битрейт                                  : 1510 Кбит/сек
Каналы                                   : 6 каналов
Расположение каналов                     : Front: L C R, Side: L R, LFE
Частота                                  : 48,0 КГц
Битовая глубина                          : 24 бит
Метод сжатия                             : С потерями
Размер потока                            : 1,05 Гбайт (16%)
Заголовок                                : VO [acolith]
Язык                                     : Russian
Default                                  : Нет
Forced                                   : Нет
Аудио #3
Идентификатор                            : 4
Формат                                   : DTS
Формат/Информация                        : Digital Theater Systems
Режим                                    : 16
Параметр Endianness формата              : Big
Идентификатор кодека                     : A_DTS
Продолжительность                        : 1 ч. 39 м.
Вид битрейта                             : Постоянный
Битрейт                                  : 1509 Кбит/сек
Каналы                                   : 6 каналов
Расположение каналов                     : Front: L C R, Side: L R, LFE
Частота                                  : 48,0 КГц
Битовая глубина                          : 24 бит
Метод сжатия                             : С потерями
Размер потока                            : 1,05 Гбайт (16%)
Язык                                     : English
Default                                  : Нет
Forced                                   : Нет
Текст #1
Идентификатор                            : 5
Формат                                   : UTF-8
Идентификатор кодека                     : S_TEXT/UTF8
Идентификатор кодека/Информация          : UTF-8 Plain Text
Язык                                     : English
Default                                  : Нет
Forced                                   : Нет
Текст #2
Идентификатор                            : 6
Формат                                   : UTF-8
Идентификатор кодека                     : S_TEXT/UTF8
Идентификатор кодека/Информация          : UTF-8 Plain Text
Заголовок                                : SDH
Язык                                     : English
Default                                  : Нет
Forced                                   : Нет
Текст #3
Идентификатор                            : 7
Формат                                   : UTF-8
Идентификатор кодека                     : S_TEXT/UTF8
Идентификатор кодека/Информация          : UTF-8 Plain Text
Заголовок                                : [jerichOne, trashcan]
Язык                                     : Russian
Default                                  : Нет
Forced                                   : Нет
Меню
00:00:00.000                             : en:Chapter 1
00:08:34.347                             : en:Chapter 2
00:15:17.750                             : en:Chapter 3
00:21:53.145                             : en:Chapter 4
00:28:18.697                             : en:Chapter 5
00:35:29.878                             : en:Chapter 6
00:41:37.995                             : en:Chapter 7
00:49:26.422                             : en:Chapter 8
01:00:41.888                             : en:Chapter 9
01:09:51.020                             : en:Chapter 10
01:21:42.481                             : en:Chapter 11
01:33:09.000                             : en:Chapter 12

x264 Info

x264 [info]: frame I:1652 Avg QP:11.59 size:137986
x264 [info]: frame P:29984 Avg QP:13.87 size: 52025
x264 [info]: frame B:111570 Avg QP:15.96 size: 18743
Other forum [Profile] [PM]
Display posts from previous:    
Reply to topic

The time now is: Today 23:02

All times are GMT + 3 Hours



You cannot post new topics in this forum
You cannot reply to topics in this forum
You cannot edit your posts in this forum
You cannot delete your posts in this forum
You cannot vote in polls in this forum
You cannot attach files in this forum
You cannot download files in this forum