Сегодня идет свободное скачивание без начисления Download

Последнее дело комиссара Берлаха (1972) DVBRip

Ответить на тему
 
Автор
Сообщение

UndegraundMen ®

Стаж: 5 лет 9 месяцев

Сообщений: 25860

Торрент-статистика

Пост 27-Мар-2013 23:10

[Цитировать]

Последнее дело комиссара Берлаха (1972) DVBRip- Русское название: Последнее дело комиссара Берлаха
Год выпуска: 1972
Жанр: Триллер, Политический детектив
Описание фильма:
Политический детектив по мотивам повести Фридриха Дюренматта "Подозрение".
Комисар полиции Берлах (Николай Симонов) в послевоенной Швейцарии разыскивает скрывающихся нацистских преступников. Узнав, что под вымышленным именем одной из клиник руководит бывший врач-нацист, тяжело больной Берлах определяется туда на лечение...
Режиссер: Василий Левин
Актеры: Николай Симонов, Андрей Попов, Николай Волков старший, Светлана Коркошко, Николай Гринько, Ева Мурниеце, Людмила Войнова-Крутикова, Артур Димитерс, Волдемар Акуратерс, Александр Бениаминов, Улдис Ваздикс, Игорь Варпа, Лидия Пупуре, Вольдемар Дудиньш, Раиса Лунёва, Арис Розенталь, Паул Буткевич
Продолжительность: 01:02:28 + 01:00:14

Видеокодек: MPEG-2
Битрейт видео: ~2 437 Kbps, ~ 2 201 Kbps
Размер кадра: 704 х 576
Качество видео: DVBRip
Аудиокодек: MP2, 2ch
Битрейт аудио: 192 Kbps
Сэмпл: Ссылка

Media Info 1-я серия

Format : MPEG-PS
File size : 1.17 GiB
Duration : 1h 2mn
Overall bit rate mode : Variable
Overall bit rate : 2 683 Kbps
Video
ID : 224 (0xE0)
Format : MPEG Video
Format version : Version 2
Format profile : [email protected]
Format settings, BVOP : Yes
Format settings, Matrix : Custom
Format settings, GOP : M=3, N=24
Duration : 1h 2mn
Bit rate mode : Variable
Bit rate : 2 437 Kbps
Maximum bit rate : 9 610 Kbps
Width : 704 pixels
Height : 576 pixels
Display aspect ratio : 4:3
Frame rate : 25.000 fps
Standard : PAL
Color space : YUV
Chroma subsampling : 4:2:0
Bit depth : 8 bits
Compression mode : Lossy
Bits/(Pixel*Frame) : 0.240
Stream size : 1.06 GiB (91%)
Audio
ID : 192 (0xC0)
Format : MPEG Audio
Format version : Version 1
Format profile : Layer 2
Duration : 1h 2mn
Bit rate mode : Constant
Bit rate : 192 Kbps
Channel(s) : 2 channels
Sampling rate : 48.0 KHz
Compression mode : Lossy
Stream size : 85.8 MiB (7%)

Media Info 2-я серия

Format : MPEG-PS
File size : 1.03 GiB
Duration : 1h 0mn
Overall bit rate mode : Variable
Overall bit rate : 2 441 Kbps
Video
ID : 224 (0xE0)
Format : MPEG Video
Format version : Version 2
Format profile : [email protected]
Format settings, BVOP : Yes
Format settings, Matrix : Custom
Format settings, GOP : M=3, N=24
Duration : 1h 0mn
Bit rate mode : Variable
Bit rate : 2 201 Kbps
Maximum bit rate : 9 610 Kbps
Width : 704 pixels
Height : 576 pixels
Display aspect ratio : 4:3
Frame rate : 25.000 fps
Standard : PAL
Color space : YUV
Chroma subsampling : 4:2:0
Bit depth : 8 bits
Scan type : Interlaced
Scan order : Top Field First
Compression mode : Lossy
Bits/(Pixel*Frame) : 0.217
Stream size : 948 MiB (90%)
Audio
ID : 192 (0xC0)
Format : MPEG Audio
Format version : Version 1
Format profile : Layer 2
Duration : 1h 0mn
Bit rate mode : Constant
Bit rate : 192 Kbps
Channel(s) : 2 channels
Sampling rate : 48.0 KHz
Compression mode : Lossy
Stream size : 82.7 MiB (8%)
Скриншоты:
           
Время раздачи: До нескольких сидов
Вне форума [Профиль] [ЛС]
Похожие темы
Форум Тема Автор Торрент Отв. Посл. сообщение
./templates/default/images/folder_dl.gif Фильмы 2001-2010 Обитель зла 4: Жизнь после смерти / Resident Evil: Afterlife (Пол У. С. Андерсон) [2010 г., ужасы, фантастика, боевик, триллер, DVDRip] kilmister777
1 | 0

0 | 1385

40

2010-10-06 18:54
kilmister777 Последнее
./templates/default/images/folder_dl.gif Компьютерная литература Михаил Пантаев | Матанализ с человеческим лицом, или Как выжить после предельного перехода. Полный курс математического анализа. Том 2 (2016) [PDF] moralis
1 | 0

0 | 1975

18

2016-03-09 21:50
moralis Последнее
./templates/default/images/folder_dl.gif Справочники, энциклопедии и словари Михаил Пантаев | Матанализ с человеческим лицом, или Как выжить после предельного перехода. Полный курс математического анализа. Том 1 (2015) [PDF] moralis
1 | 0

0 | 1905

14

2016-03-09 21:51
moralis Последнее
./templates/default/images/folder_dl.gif Фантастика, фэнтези, ужасы, мистика Андрей Круз | После (2017) [FB2] }{@R0N
1 | 0

1 | 4455

20

2018-02-22 01:03
Russfreeman Последнее
./templates/default/images/folder_dl.gif Новинки (BD|HDTV|DVD) Звёздные войны: Последние джедаи / Star Wars: The Last Jedi (Райан Джонсон) [2017, фантастика, фэнтези, боевик, приключения, UHD BDRemux 2160p] DUB | iTunes Theseus
1 | 0

0 | 758

5

2018-03-15 14:03
Theseus Последнее
./templates/default/images/folder_dl.gif Фантастика, фэнтези, ужасы, мистика Андрей Круз, Андрей Царев | Земля Лишних. Последний борт на Одессу (2018) [MP3] }{@R0N
1 | 0

0 | 381

2

2018-07-18 21:33
}{@R0N Последнее
./templates/default/images/folder_dl.gif Новинки (HD|DVD|BD|WEB|TV|SAT|PDTV|-Rip) Миссия невыполнима: Последствия / Mission: Impossible - Fallout (Кристофер МакКуорри) [2018 г., боевик, триллер, приключения, WEBRip] MVO | MUZOBOZ Theseus
1 | 0

0 | 1086

24

2018-09-15 14:33
Theseus Последнее
Показать сообщения:    
Ответить на тему

Текущее время: Сегодня 16:16

Часовой пояс: GMT + 3



Вы не можете начинать темы
Вы не можете отвечать на сообщения
Вы не можете редактировать свои сообщения
Вы не можете удалять свои сообщения
Вы не можете голосовать в опросах
Вы не можете прикреплять файлы к сообщениям
Вы не можете скачивать файлы