Today is a free download without charge Download

Ангелы войны [1-4 серии из 4] (2012) DVD9

Reply to topic
 
Author
Message

UndegraundMen ®

Longevity: 8 years 9 months

Posts: 25145

Торрент-статистика

Post 27-Mar-2013 23:10

[Quote]

Ангелы войны [1-4 серии из 4] (2012) DVD9- Русское название: Ангелы войны
Год выпуска: 2012
Жанр: Драма, Военный
Производство: Украина

Дата Российской премьеры: 09 мая 2012
Дата выхода DVD релиза: 26 марта 2013, «Lizard Cinema Trade»
Режиссер: Татьяна Ходаковская
Актеры: Богдан Бенюк, Матвей Зубалевич, Александра Тюфтей, Наталья Бузько, Кирилл Полухин, Алексей Шемес, Валентин Касьян, Игорь Гнездилов, Эдуард Безродный, Борис Георгиевский...
Описание фильма:
Во время войны на оккупированной территории организован фильтрационный немецкий лагерь «Надежда», где проводят опыты над детьми. Особой ценностью считаются близнецы — самый ценный материал для опытов. И когда из лагеря удается бежать одному из близнецов, немцы поднимают тревогу, пытаясь отыскать сбежавшего мальчишку. Это усложняет жизнь и жителям ближайшего села, и партизанскому отряду, и даже местным полицаям. В центре развития событий жизнь маленького Пети и трогательная история любви молодой пары — полицая Андрея и дочки старосты Нины. Герои раз за разом сталкиваются со смертью близких, противостоянием, недоверием и обманом. Те, кто еще вчера были друзьями, становятся самыми опасными врагами, а те, кому вчера не подали бы руки, откроются с новой стороны.
Продолжительность: ~00:50:00 x 4 серии
Качество видео: DVD9 R5
Видеокодек: MPEG-2
Битрейт видео: ~5142 Кбит/сек
Размер кадра: 720х[email protected]
Аудио: (Dolby AC3, 2 ch) 192 Кбит/сек, Русский
Субтитры: Нет
Дополнительные материалы: Нет

Обложка, диск:

   

DVDInfo

Title: Angely.voiny.2012.nnm.DVD9
Size: 7.57 Gb ( 7 940 080,00 KBytes ) - DVD-9
Enabled regions: 1, 2, 3, 4, 5, 6, 7, 8
VTS_01 :
Play Length: 00:00:25+{00:00:25}+{00:00:25}
Video: PAL 4:3 (720x576) VBR
Audio:
  • Russian (Dolby AC3, 6 ch)
  • English (Dolby AC3, 6 ch)
  • English (Dolby AC3, 6 ch)
    VTS_02 :
    Play Length: 00:49:00
    Video: PAL 16:9 (720x576) VBR, Auto Pan&Scan, Auto Letterboxed
    Audio:
  • Russian (Dolby AC3, 2 ch)
    VTS_03 :
    Play Length: 00:50:26
    Video: PAL 16:9 (720x576) VBR, Auto Pan&Scan, Auto Letterboxed
    Audio:
  • Russian (Dolby AC3, 2 ch)
    VTS_04 :
    Play Length: 00:50:13
    Video: PAL 16:9 (720x576) VBR, Auto Pan&Scan, Auto Letterboxed
    Audio:
  • Russian (Dolby AC3, 2 ch)
    VTS_05 :
    Play Length: 00:51:00
    Video: PAL 16:9 (720x576) VBR, Auto Pan&Scan, Auto Letterboxed
    Audio:
  • Russian (Dolby AC3, 2 ch)

MediaInfo

Общее
Полное имя : I:\Kino\Ангелы войны\Angely.voiny.2012.nnm.DVD9\VIDEO_TS\VTS_03_1.VOB
Формат : MPEG-PS
Размер файла : 1024 Мбайт
Продолжительность : 26 м.
Режим общего битрейта : Переменный
Общий поток : 5443 Кбит/сек
Видео
Идентификатор : 224 (0xE0)
Формат : MPEG Video
Версия формата : Version 2
Профиль формата : [email protected]
Параметр BVOP формата : Да
Параметр матрицы формата : Выборочная
Продолжительность : 26 м.
Вид битрейта : Переменный
Битрейт : 5142 Кбит/сек
Максимальный битрейт : 8000 Кбит/сек
Ширина : 720 пикселей
Высота : 576 пикселей
Соотношение сторон : 16:9
Частота кадров : 25,000 кадров/сек
Стандарт вещания : PAL
Цветовое пространство : YUV
Субдискретизация насыщенности : 4:2:0
Битовая глубина : 8 бит
Тип развёртки : Прогрессивная
Метод сжатия : С потерями
Бит/(Пиксели*Кадры) : 0.496
Размер потока : 967 Мбайт (94%)
Аудио
Идентификатор : 189 (0xBD)-128 (0x80)
Формат : AC-3
Формат/Информация : Audio Coding 3
Расширение режима : CM (complete main)
Режим смешивания : DVD-Video
Продолжительность : 26 м.
Вид битрейта : Постоянный
Битрейт : 192 Кбит/сек
Каналы : 2 канала
Расположение каналов : Front: L R
Частота : 48,0 КГц
Битовая глубина : 16 бит
Метод сжатия : С потерями
Размер потока : 36,1 Мбайт (4%)
Меню

Скриншоты меню

   
Скриншоты:      
     
Other forum [Profile] [PM]
Display posts from previous:    
Reply to topic

The time now is: Today 18:11

All times are GMT + 3 Hours



You cannot post new topics in this forum
You cannot reply to topics in this forum
You cannot edit your posts in this forum
You cannot delete your posts in this forum
You cannot vote in polls in this forum
You cannot attach files in this forum
You cannot download files in this forum