Today is a free download without charge Download

Позвони в мою дверь (2008) DVDRip [Все 4 серии]

Reply to topic
 
Author
Message

UndegraundMen ®

Longevity: 8 years 9 months

Posts: 25145

Торрент-статистика

Post 27-Mar-2013 23:10

[Quote]

Позвони в мою дверь (2008) DVDRip [Все 4 серии]- Русское название: Позвони в мою дверь
Год выпуска: 2008
Жанр: Мелодрама
Выпущено: Россия, Кинокомпания «РУССКОЕ»
16+
Дата российской премьеры: 15 марта 2008
Дата выхода DVD/Blu-Ray релиза: 2 октября 2008, «CP-Digital»
Режиссер: Роман Просвирнин
Актеры: Карина Разумовская, Алексей Зубков, Сергей Комаров (II), Сергей Варчук, Дмитрий Бедарев, Юрий Назаров, Людмила Зайцева, Борис Покровский, Татьяна Ташкова, Михаил Лебедев, Сергей Серов, Анастасия Ростопша, Андрей Зубков, Юлия Подозёрова
Описание фильма:
Сестрам Полине и Маше рано пришлось привыкать к самостоятельной жизни. Их родители погибли в автокатастрофе, когда девочки были еще совсем малы, и выживать в трудные девяностые им пришлось самим. В двадцать лет старшая, Полина, влюбилась в моряка-подводника и родила от него двух мальчиков-близнецов. Но дети оказались такими беспокойными, а "морская" кровь так тянула их отца к приключениям, что удержать его не смогла даже большая квартира Полины. Одинокой маме пришлось одной няньчиться с двумя детьми, с трудом спасаясь от голода и нищеты…
Продолжительность: 4 х ~ 00:41:27
Качество видео: DVDRip
Видеокодек: DivX 5
Битрейт видео: ~2 017 Кбит/с
Размер кадра: 688x368
Аудиокодек: AC3 2.0
Битрейт аудио: 256 Кбит/с

MediaInfo

General
Complete name : Posvoni.v.mou.dver.(1.serija.iz.4).2008.DivX.DVDRip.avi
Format : AVI
Format/Info : Audio Video Interleave
File size : 677 MiB
Duration : 41mn 27s
Overall bit rate : 2 283 Kbps
Writing application : VirtualDubMod 1.5.4.1 (build 2178/release)
Writing library : VirtualDubMod build 2178/release
Video
ID : 0
Format : MPEG-4 Visual
Format settings, BVOP : 1
Format settings, QPel : No
Format settings, GMC : No warppoints
Format settings, Matrix : Default (H.263)
Muxing mode : Packed bitstream
Codec ID : DX50
Codec ID/Hint : DivX 5
Duration : 41mn 27s
Bit rate : 2 017 Kbps
Width : 688 pixels
Height : 368 pixels
Display aspect ratio : 1.870
Frame rate : 25.000 fps
Color space : YUV
Chroma subsampling : 4:2:0
Bit depth : 8 bits
Scan type : Progressive
Compression mode : Lossy
Bits/(Pixel*Frame) : 0.319
Stream size : 598 MiB (88%)
Writing library : DivX 6.8.3-6.8.4 (UTC 2008-06-07)
Audio
ID : 1
Format : AC-3
Format/Info : Audio Coding 3
Mode extension : CM (complete main)
Codec ID : 2000
Duration : 41mn 27s
Bit rate mode : Constant
Bit rate : 256 Kbps
Channel(s) : 2 channels
Channel positions : Front: L R
Sampling rate : 48.0 KHz
Bit depth : 16 bits
Compression mode : Lossy
Stream size : 75.9 MiB (11%)
Alignment : Split accross interleaves
Interleave, duration : 40 ms (1.00 video frame)
Interleave, preload duration : 500 ms
Скриншоты:
         
Время раздачи: 24/7 по мере возможности...
Other forum [Profile] [PM]
Display posts from previous:    
Reply to topic

The time now is: Today 17:27

All times are GMT + 3 Hours



You cannot post new topics in this forum
You cannot reply to topics in this forum
You cannot edit your posts in this forum
You cannot delete your posts in this forum
You cannot vote in polls in this forum
You cannot attach files in this forum
You cannot download files in this forum