Today is a free download without charge Download

Дориан Грей / Dorian Gray (Оливер Паркер / Oliver Parker) [2009, Великобритания, фэнтези, триллер, драма BDRip 720p] Dub (R5) + MVO + Subs (Rus, Eng)

Reply to topic
 
Author
Message

Omen ®

Longevity: 8 years 5 months

Posts: 181087

Торрент-статистика

Post 27-Mar-2013 20:46

[Quote]

Дориан Грей / Dorian Gray- Страна: Великобритания
Жанр: фэнтези, триллер, драма
Год выпуска: 2009
Продолжительность: 01:52:17-Перевод #1: Профессиональный (дублированный)
Перевод #2: Профессиональный (многоголосый закадровый)
Cубтитры: Russian, English
Оригинальная аудиодорожка: английская-Режиссер: Оливер Паркер / Oliver Parker
В ролях: Бен Барнс, Колин Фёрт, Бен Чаплин, Ребекка Холл, Фиона Шоу, Пип Торренс, Джон Холлинворт, Като Сэндфорд, Кэролайн Гудолл, Мэриам д’Або, Майкл Калкин, Эмилия Фокс- -Описание: Молодой и невероятно красивый Дориан Грей приезжает в Лондон и попадает под влияние искателя приключений лорда Уоттона. Он внушил юноше, что секрет успеха и счастья Дориана — в его красоте, ведь она поможет получить все удовольствия мира. Дориан заключает сделку с Дьяволом. Юноша заказывает свой портрет, и теперь вся грязь его жизни, полной распутства и преступных страстей, будет пачкать и портить полотно, его же собственное лицо останется вечно юным и прекрасным. Проскитавшись по свету в поисках наслаждений 25 лет, Дориан возвращается на родину. Захваченный врасплох сильными чувствами, он впервые понял ценность взаимной любви. Но на пути к счастью железной преградой встало темное и загадочное прошлое Дориана…-Доп. информация:
  • Дорожки #1,2 взяты с BD-Remux 1080p (спасибо порошков)
  • Кодирование видео - by sergey_n
  • Сохранены оригинальные чаптеры как на Blu-ray
-Сэмпл: скачать-Тип релиза: BDRip 720p
Контейнер: MKV-Видео: H264, 1280x694, 3673 Kbps at 24.000 fps (2pass, L4.1)
Аудио #1: Russian: 48 kHz, DTS 3/2 (L,C,R,l,r) + LFE ch, ~1509.00 kbps avg |Дублированный, R5|
Аудио #2: Russian: 48 kHz, DTS 3/2 (L,C,R,l,r) + LFE ch, ~1509.00 kbps avg |Многоголосый закадровый|
Аудио #3: English: 48 kHz, DTS 3/2 (L,C,R,l,r) + LFE ch, ~1509.00 kbps avg |Original|
Формат субтитров: softsub (SRT)
-

MediaInfo

GeneralUnique ID : 170500509125564529208473371415003586076 (0x8045341F82CF8D5FBFAADCD183FCDE1C)Complete name : E:\Dorian.Gray.2009.720p.BluRay.Rus.Eng.HDCLUB.mkvFormat : MatroskaFormat version : Version 4 / Version 2File size : 6.43 GiBDuration : 1h 52mnOverall bit rate : 8 203 KbpsMovie name : Dorian Gray (2009) - Release for HDCLUBEncoded date : UTC 2013-03-27 08:52:28Writing application : mkvmerge v6.1.0 ('Old Devil') built on Mar 2 2013 14:32:37Writing library : libebml v1.3.0 + libmatroska v1.4.0
VideoID : 1Format : AVCFormat/Info : Advanced Video CodecFormat profile : [email protected] settings, CABAC : YesFormat settings, ReFrames : 9 framesCodec ID : V_MPEG4/ISO/AVCDuration : 1h 52mnBit rate : 3 673 KbpsWidth : 1 280 pixelsHeight : 694 pixelsDisplay aspect ratio : 1.85:1Frame rate mode : ConstantFrame rate : 24.000 fpsColor space : YUVChroma subsampling : 4:2:0Bit depth : 8 bitsScan type : ProgressiveBits/(Pixel*Frame) : 0.172Stream size : 2.76 GiB (43%)Title : BDRip 720p / HDCLUB / rutracker.orgWriting library : x264 core 84 r1400M 20fa784Encoding settings : cabac=1 / ref=9 / deblock=1:-3:-3 / analyse=0x3:0x113 / me=umh / subme=9 / psy=1 / psy_rd=1.0:0.0 / mixed_ref=1 / me_range=32 / chroma_me=1 / trellis=2 / 8x8dct=1 / cqm=0 / deadzone=21,11 / fast_pskip=0 / chroma_qp_offset=-2 / threads=12 / sliced_threads=0 / nr=0 / decimate=0 / mbaff=0 / constrained_intra=0 / bframes=8 / b_pyramid=2 / b_adapt=2 / b_bias=0 / direct=3 / wpredb=1 / wpredp=2 / keyint=240 / keyint_min=24 / scenecut=40 / intra_refresh=0 / rc_lookahead=80 / rc=2pass / mbtree=1 / bitrate=3673 / ratetol=1.0 / qcomp=0.80 / qpmin=10 / qpmax=51 / qpstep=4 / cplxblur=20.0 / qblur=0.5 / vbv_maxrate=50000 / vbv_bufsize=62500 / ip_ratio=1.40 / aq=1:0.80 / pulldown=0 / nal_hrd=0Language : EnglishDefault : YesForced : No
Audio #1ID : 2Format : DTSFormat/Info : Digital Theater SystemsMode : 16Format settings, Endianness : BigCodec ID : A_DTSDuration : 1h 52mnBit rate mode : ConstantBit rate : 1 509 KbpsChannel(s) : 6 channelsChannel positions : Front: L C R, Side: L R, LFESampling rate : 48.0 KHzBit depth : 16 bitsCompression mode : LossyStream size : 1.18 GiB (18%)Title : ДубляжLanguage : RussianDefault : YesForced : No
Audio #2ID : 3Format : DTSFormat/Info : Digital Theater SystemsMode : 16Format settings, Endianness : BigCodec ID : A_DTSDuration : 1h 52mnBit rate mode : ConstantBit rate : 1 509 KbpsChannel(s) : 6 channelsChannel positions : Front: L C R, Side: L R, LFESampling rate : 48.0 KHzBit depth : 24 bitsCompression mode : LossyStream size : 1.18 GiB (18%)Title : Многоголосый закадровыйLanguage : RussianDefault : NoForced : No
Audio #3ID : 4Format : DTSFormat/Info : Digital Theater SystemsMode : 16Format settings, Endianness : BigCodec ID : A_DTSDuration : 1h 52mnBit rate mode : ConstantBit rate : 1 509 KbpsChannel(s) : 6 channelsChannel positions : Front: L C R, Side: L R, LFESampling rate : 48.0 KHzBit depth : 24 bitsCompression mode : LossyStream size : 1.18 GiB (18%)Title : OriginalLanguage : EnglishDefault : NoForced : No
Text #1ID : 5Format : UTF-8Codec ID : S_TEXT/UTF8Codec ID/Info : UTF-8 Plain TextTitle : FullLanguage : RussianDefault : NoForced : No
Text #2ID : 6Format : UTF-8Codec ID : S_TEXT/UTF8Codec ID/Info : UTF-8 Plain TextTitle : FullLanguage : EnglishDefault : NoForced : No
Menu00:00:00.000 : en:00:00:00.00000:10:26.833 : en:00:10:26.83300:18:00.417 : en:00:18:00.41700:29:13.250 : en:00:29:13.25000:36:51.667 : en:00:36:51.66700:46:47.708 : en:00:46:47.70800:57:25.208 : en:00:57:25.20801:06:29.708 : en:01:06:29.70801:14:26.667 : en:01:14:26.66701:25:02.583 : en:01:25:02.58301:34:54.417 : en:01:34:54.41701:43:53.083 : en:01:43:53.083
Other forum [Profile] [PM]
Display posts from previous:    
Reply to topic

The time now is: Today 13:02

All times are GMT + 3 Hours



You cannot post new topics in this forum
You cannot reply to topics in this forum
You cannot edit your posts in this forum
You cannot delete your posts in this forum
You cannot vote in polls in this forum
You cannot attach files in this forum
You cannot download files in this forum