Today is a free download without charge Download

Любовное письмо / Love Letter (Сюндзи Иваи / Iwai Shunji) [1995, Япония, драма, мелодрама, BDRemux 1080p] VO (DeMon.sh) + Original Jap + Subs (rus, eng)

Reply to topic
 
Author
Message

Omen ®

Longevity: 8 years 5 months

Posts: 181087

Торрент-статистика

Post 27-Mar-2013 20:46

[Quote]

Любовное письмо
Love Letter- Страна: Япония
Жанр: драма, мелодрама
Год выпуска: 1995
Продолжительность: 01:56:31
-Перевод: Одноголосый закадровый DeMon.sh
Субтитры: русские (автор: Verrueckter Junge; стилизованные и обычные), английские
Оригинальная аудиодорожка: японская
-Режиссёр: Сюндзи Иваи / Iwai Shunji
В ролях: Михо Накаяма (Itsuki Fujii / Hiroko Watanabe), Эцуси Тоёкава (Akiba Shigeru), Бунджаку Ан (Female itsuki's mother), Кацуюки Синохара (Female itsuki's grandfather), Мики Сакаи (Itsuki Fujii as a young girl), Такаши Кашивабара (Male itsuki fujii), Кен Мицуйси (Abekasu), Емико Нагата (Harumi), Каори Огури (Suzumi), Наоки Гото (Ootomo), Тошия Сакаи (Driver), Кэйити Судзуки (Male itsuki's father)
Описание: Вот уже два года прошло с тех пор, как жених Хироко трагически погиб в горах, но она всё не может забыть Ицуки. Находясь в гостях у его матери, из школьного альбома Хироко узнает адрес, по которому Ицуки проживал в родном городе, и решает отправить туда письмо, хотя знает, что дом тот давно снесли и теперь на его месте пролегает шоссе. И к своему изумлению Хироко получает ответ за подписью Ицуки...
-
MPAA: PG - Рекомендуется присутствие родителей-Качество: BDRemux 1080p [Love Letter 1995 BluRay 1080p AVC DTS-HD MA2.0-CHDBits]
Контейнер: MKV
Видео: H.264/AVC, 1920x1080 (16:9), 23.976 fps, ~24559 kbps
Аудио №1: Русский: AC3, 48 kHz, 2/0 (L, R), 448 kbps
Аудио №2: Японский: DTS-HD MA 2.0, 48 kHz, 24 bit, ~1830 kbps (DTS Core: 2.0, 48 kHz, 24 bit, 1510 kbps)
Формат субтитров: ASS, softsub (SRT)
Навигация по главам: есть
-

MediaInfo

General
Complete name : Love.Letter.1995.1080p.BDRemux.Rus.Jap.Subs.-CHDBits.mkv
Format : Matroska
Format version : Version 2
File size : 21.8 GiB
Duration : 1h 56mn
Overall bit rate mode : Variable
Overall bit rate : 26.8 Mbps
Movie name : Love Letter (1995) by GuNNeR
Encoded date : UTC 2013-03-27 11:41:47
Writing application : mkvmerge v5.8.0 ('No Sleep / Pillow') built on Sep 2 2012 15:37:04
Writing library : libebml v1.2.3 + libmatroska v1.3.0
Attachment : Yes
Video
ID : 1
Format : AVC
Format/Info : Advanced Video Codec
Format profile : [email protected]
Format settings, CABAC : Yes
Format settings, ReFrames : 4 frames
Codec ID : V_MPEG4/ISO/AVC
Duration : 1h 56mn
Bit rate mode : Variable
Bit rate : 24.3 Mbps
Maximum bit rate : 35.0 Mbps
Width : 1 920 pixels
Height : 1 080 pixels
Display aspect ratio : 16:9
Frame rate : 23.976 fps
Standard : NTSC
Color space : YUV
Chroma subsampling : 4:2:0
Bit depth : 8 bits
Scan type : Progressive
Bits/(Pixel*Frame) : 0.489
Stream size : 19.8 GiB (91%)
Title : -CHDBits-
Language : Japanese
Default : Yes
Forced : No
Color primaries : BT.709-5, BT.1361, IEC 61966-2-4, SMPTE RP177
Transfer characteristics : BT.709-5, BT.1361
Matrix coefficients : BT.709-5, BT.1361, IEC 61966-2-4 709, SMPTE RP177
Audio #1
ID : 2
Format : AC-3
Format/Info : Audio Coding 3
Mode extension : CM (complete main)
Codec ID : A_AC3
Duration : 1h 56mn
Bit rate mode : Constant
Bit rate : 448 Kbps
Channel(s) : 2 channels
Channel positions : Front: L R
Sampling rate : 48.0 KHz
Bit depth : 16 bits
Compression mode : Lossy
Stream size : 373 MiB (2%)
Title : VO - DeMon.sh @ DD2.0 448 kbps
Language : Russian
Default : Yes
Forced : No
Audio #2
ID : 3
Format : DTS
Format/Info : Digital Theater Systems
Format profile : MA / Core
Codec ID : A_DTS
Duration : 1h 56mn
Bit rate mode : Variable
Bit rate : 1 558 Kbps / 1 510 Kbps
Channel(s) : 2 channels
Channel positions : Front: L R
Sampling rate : 48.0 KHz
Bit depth : 24 bits
Compression mode : Lossless / Lossy
Title : Original @ DTS-HD MA 2.0 ~1830 kbps
Language : Japanese
Default : No
Forced : No
Text #1
ID : 4
Format : ASS
Codec ID : S_TEXT/ASS
Codec ID/Info : Advanced Sub Station Alpha
Compression mode : Lossless
Title : Full (by Verrueckter Junge) @ ASS
Language : Russian
Default : No
Forced : No
Text #2
ID : 5
Format : UTF-8
Codec ID : S_TEXT/UTF8
Codec ID/Info : UTF-8 Plain Text
Title : Full (by Verrueckter Junge) @ SRT
Language : Russian
Default : No
Forced : No
Text #3
ID : 6
Format : UTF-8
Codec ID : S_TEXT/UTF8
Codec ID/Info : UTF-8 Plain Text
Title : Full (Blu-ray) @ SRT
Language : English
Default : No
Forced : No
Menu
00:00:00.000 : ja:00:00:00.000
00:05:52.060 : ja:00:05:52.060
00:09:11.050 : ja:00:09:11.050
00:13:07.537 : ja:00:13:07.537
00:16:59.560 : ja:00:16:59.560
00:22:34.478 : ja:00:22:34.478
00:26:29.338 : ja:00:26:29.338
00:29:31.603 : ja:00:29:31.603
00:33:28.465 : ja:00:33:28.465
00:39:32.120 : ja:00:39:32.120
00:44:06.602 : ja:00:44:06.602
00:49:02.857 : ja:00:49:02.857
00:52:32.691 : ja:00:52:32.691
00:59:54.966 : ja:00:59:54.966
01:05:31.594 : ja:01:05:31.594
01:11:19.525 : ja:01:11:19.525
01:16:28.667 : ja:01:16:28.667
01:20:13.517 : ja:01:20:13.517
01:26:56.336 : ja:01:26:56.336
01:33:14.214 : ja:01:33:14.214
01:39:36.846 : ja:01:39:36.846
01:44:26.177 : ja:01:44:26.177
01:49:23.348 : ja:01:49:23.348
01:53:49.614 : ja:01:53:49.614

Скриншоты

-Built with Flash Release
Other forum [Profile] [PM]
Display posts from previous:    
Reply to topic

The time now is: Today 02:21

All times are GMT + 3 Hours



You cannot post new topics in this forum
You cannot reply to topics in this forum
You cannot edit your posts in this forum
You cannot delete your posts in this forum
You cannot vote in polls in this forum
You cannot attach files in this forum
You cannot download files in this forum