Today is a free download without charge Download

Приключения Марка Твена / The adventures of Mark Twain (Уил Винтон /Will Vinton) [1985, США, мультфильм, приключения, семейный, BDRemux 1080p] Dub + MVO + Sub Rus, Eng + Original Eng

Reply to topic
 
Author
Message

Omen ®

Longevity: 8 years

Posts: 181087

Торрент-статистика

Post 27-Mar-2013 20:46

[Quote]

Приключения Марка Твена / The adventures of Mark Twain
Страна: США
Жанр: мультфильм, приключения, семейный
Год выпуска: 1985
Продолжительность: 01:26:07
Перевод: Профессиональный (дублированный)
Перевод 2: Профессиональный (многоголосый закадровый)
Cубтитры: русские, английские
Оригинальная аудиодорожка: английская
Режиссер: Уил Винтон /Will Vinton
В ролях: Джеймс Уитмор, Мишель Мариана, Гари Круг, Крис Ричи, Джон Моррисон, Кэрол Эдельман, Даль МакКеннон, Херб Смит, Марли Стоун, Вилбур Винсент
Описание: В этом полнометражном анимационном фильме, основанном на историях Марка Твена, рассказывается о приключениях Тома Сойера, Бекки Тэтчер и Хака Финна, отправившихся в путешествие на межпланетном воздушном шаре Марка Твена.

Сэмпл: http://yadi.sk/d/W8gVsmc73a94W
Тип релиза: BDRemux 1080p
Контейнер: MKV
Видео: MPEG-4 AVC ~29776 kbps 1080p / 23,976 fps / 16:9 / High Profile 4.1
Аудио: Russian DD 2.0 48 kHz 192 kbps - дублированный
Аудио 2: Russian DD 2.0 48 kHz 192 kbps - закадровый (многоголосый)
Аудио 3: English DTS-HD MA 2.0 48 kHz 844 kbps 16-bit (DTS Core: 2.0 / 48 kHz / 512 kbps / 16-bit)
Формат субтитров: softsub (SRT)

MediaInfo

General
Unique ID : 224033809709251806934253973419096466155 (0xA88B579ED66F593DB92BD523E93AE2EB)
Complete name : D:\The Adventures of Mark Twain (1985) BDRemux.mkv
Format : Matroska
Format version : Version 4 / Version 2
File size : 18.7 GiB
Duration : 1h 26mn
Overall bit rate mode : Variable
Overall bit rate : 31.0 Mbps
Movie name : The Adventures of Mark Twain (1985)
Encoded date : UTC 2013-03-27 14:22:45
Writing application : mkvmerge v6.1.0 ('Old Devil') built on Mar 2 2013 14:32:37
Writing library : libebml v1.3.0 + libmatroska v1.4.0
Video #1
ID : 1
Format : AVC
Format/Info : Advanced Video Codec
Format profile : [email protected]
Format settings, CABAC : Yes
Format settings, ReFrames : 4 frames
Codec ID : V_MPEG4/ISO/AVC
Duration : 1h 26mn
Bit rate mode : Constant
Nominal bit rate : 30.0 Mbps
Width : 1 920 pixels
Height : 1 080 pixels
Display aspect ratio : 16:9
Frame rate mode : Constant
Frame rate : 23.976 fps
Standard : NTSC
Color space : YUV
Chroma subsampling : 4:2:0
Bit depth : 8 bits
Scan type : Progressive
Bits/(Pixel*Frame) : 0.603
Language : English
Default : Yes
Forced : No
Color primaries : BT.709
Transfer characteristics : BT.709
Matrix coefficients : BT.709
Audio #2
ID : 2
Format : AC-3
Format/Info : Audio Coding 3
Mode extension : CM (complete main)
Format settings, Endianness : Big
Codec ID : A_AC3
Duration : 1h 26mn
Bit rate mode : Constant
Bit rate : 192 Kbps
Channel(s) : 2 channels
Channel positions : Front: L R
Sampling rate : 48.0 KHz
Bit depth : 16 bits
Compression mode : Lossy
Stream size : 118 MiB (1%)
Title : Dub
Language : Russian
Default : Yes
Forced : No
Audio #3
ID : 3
Format : AC-3
Format/Info : Audio Coding 3
Mode extension : CM (complete main)
Format settings, Endianness : Big
Codec ID : A_AC3
Duration : 1h 26mn
Bit rate mode : Constant
Bit rate : 192 Kbps
Channel(s) : 2 channels
Channel positions : Front: L R
Sampling rate : 48.0 KHz
Bit depth : 16 bits
Compression mode : Lossy
Stream size : 118 MiB (1%)
Title : MVO
Language : Russian
Default : No
Forced : No
Audio #4
ID : 4
Format : DTS
Format/Info : Digital Theater Systems
Format profile : MA / Core
Mode : 16
Format settings, Endianness : Big
Codec ID : A_DTS
Duration : 1h 26mn
Bit rate mode : Variable
Bit rate : Unknown / 510 Kbps
Channel(s) : 2 channels
Channel positions : Front: L R
Sampling rate : 48.0 KHz
Bit depth : 16 bits
Compression mode : Lossless / Lossy
Language : English
Default : No
Forced : No
Text #5
ID : 5
Format : UTF-8
Codec ID : S_TEXT/UTF8
Codec ID/Info : UTF-8 Plain Text
Language : Russian
Default : No
Forced : No
Text #6
ID : 6
Format : UTF-8
Codec ID : S_TEXT/UTF8
Codec ID/Info : UTF-8 Plain Text
Language : English
Default : No
Forced : No

Скриншоты

Other forum [Profile] [PM]
Similar theme
Forum Topic Author Torrent Replies Last Post
./templates/default/images/folder_dl.gif Фильмы 2001-2010 Невероятная жизнь Уолтера Митти / The Secret Life of Walter Mitty (Бен Стиллер / Ben Stiller, 2013, Приключения, мелодрама, драма, комедия, фэнтези) WEB-DL [H.264/1080p-LQ] Omen
1 | 0

0 | 978

36

2014-03-26 22:37
Omen Latest
./templates/default/images/folder_dl.gif Обучающее видео Учебный центр 1C | Использование прикладного решения 1С Розница 8.2 Редакция 2 (2015) PCRec Varius
1 | 0

0 | 2565

44

2015-07-16 05:16
Varius Latest
./templates/default/images/folder_dl.gif Зарубежное кино Изгой-один: Звёздные войны. Истории / Rogue One: A Star Wars Story (Гарет Эдвардс) [2016 г., фантастика, боевик, приключения, BDRip 1080p] DUB | Чистый звук Theseus
1 | 0

0 | 7827

8

2017-03-22 11:05
Theseus Latest
./templates/default/images/folder_dl.gif Зарубежное кино (HD Video) Аквамен / Aquaman (Джеймс Ван / James Wan) [2018 г., боевик, приключения, фэнтези, WEBRip, 1080p] MVO (HDRezka Studio) }{@R0N
1 | 0

0 | 789

5

2019-01-27 21:52
}{@R0N Latest
./templates/default/images/folder_dl.gif Фильмы 2011-2020 Терминатор: Тёмные судьбы / Terminator: Dark Fate (Тим Миллер) [2019, Фантастика, боевик, приключения, BDRip-AVC] [DUB] [iTunes] Орлов Владимир
1 | 0

0 | 718

1

2020-01-31 08:50
Орлов Владимир Latest
./templates/default/images/folder_dl.gif Фильмы 2011-2020 Фиксики против кработов (Василий Бедошвили, Олег Ужинов, Иван Пшонкин) [2019 г., приключения, музыка, мультфильм, WEB-DLRip] kilmister777
1 | 0

0 | 741

3

2020-02-05 13:57
kilmister777 Latest
./templates/default/images/folder_dl.gif Фильмы 2011-2020 Кома (Никита Аргунов) [2020 г., боевик, фантастика, фэнтези, приключения, WEB-DLRip] kilmister777
1 | 0

0 | 586

0

2020-03-12 12:46
kilmister777 Latest
./templates/default/images/folder_dl.gif Новинки (HD|DVD|BD|WEB|TV|SAT|PDTV|-Rip) Смотри как я (Егор Сальников) [2020 г., комедия, приключения, WEB-DLRip] iTunes kilmister777
1 | 0

0 | 1155

0

2020-09-27 14:17
kilmister777 Latest
Display posts from previous:    
Reply to topic

The time now is: Today 23:42

All times are GMT + 3 Hours



You cannot post new topics in this forum
You cannot reply to topics in this forum
You cannot edit your posts in this forum
You cannot delete your posts in this forum
You cannot vote in polls in this forum
You cannot attach files in this forum
You cannot download files in this forum