Сегодня идет свободное скачивание без начисления Download

Двадцать шесть бакинских комиссаров (1965) TC

Ответить на тему
 
Автор
Сообщение

UndegraundMen ®

Стаж: 5 лет 9 месяцев

Сообщений: 25860

Торрент-статистика

Пост 27-Мар-2013 19:55

[Цитировать]

Двадцать шесть бакинских комиссаров (1965) TC- Русское название: Двадцать шесть бакинских комиссаров
Производство 1965
Дата выхода на экраны: 31 октября 1966 г. (Москва).
Жанр: Драма
Описание фильма:
Окруженный английскими и германо-турецкими войсками, отрезанный от РСФСР и других советских республик Баку оказывается в кольце блокады. Руководители Бакинского Совета вынуждены сдать власть интервентам, что приводит к аресту и трагической гибели руководителей Бакинской коммуны — двадцати шести комиссаров (Степана Шаумяна. Джапаридзе, Азизбекова и других).
Режиссер: Аждар Ибрагимов
Актеры: Владимир Самойлов, Мелик Дадашев, Тенгиз Арчвадзе, Геннадий Бойцов, Семён Соколовский, Валериан Виноградов, Игорь Юрашас, Никита Жалнин, Эльданиз Зейналов, Иван Косых, Эдуард Изотов, Гуж Манукян, Корганов, Владимир Пицек, Лоренц Арушанян, Юрий Мартынов, Н.Сетханян, Ч. Алиев, Леонид Евтифьев, Владимир Ферапонтов и др.
Продолжительность: 01:42:04

Видеокодек: DivX 5
Битрейт видео: ~1100 Кбит/сек
Размер кадра: 704х288
Качество видео: TC
Аудиокодек: MP3
Битрейт аудио: 128 Кбит/сек 1 канал 48,0 КГц

Дополнительная информация

Общее
Полное имя :26.bakinskih.komissarov.avi
Формат : AVI
Формат/Информация : Audio Video Interleave
Размер файла : 906 Мбайт
Продолжительность : 1 ч. 42 м.
Общий поток : 1241 Кбит/сек
Библиотека кодирования : VirtualDub build 32593/release
Видео
Идентификатор : 0
Формат : MPEG-4 Visual
Параметр BVOP формата : 1
Параметр QPel формата : Нет
Параметр GMC формата : Без точки перехода
Параметр матрицы формата : Default (H.263)
Режим смешивания : Сжатый битовый поток
Идентификатор кодека : DX50
Идентификатор кодека/Подсказка : DivX 5
Продолжительность : 1 ч. 42 м.
Битрейт : 1100 Кбит/сек
Ширина : 704 пикселя
Высота : 288 пикселей
Соотношение сторон : 2,40:1
Частота кадров : 25,000 кадров/сек
Цветовое пространство : YUV
Субдискретизация насыщенности : 4:2:0
Битовая глубина : 8 бит
Тип развёртки : Прогрессивная
Метод сжатия : С потерями
Бит/(Пиксели*Кадры) : 0.217
Размер потока : 803 Мбайт (89%)
Библиотека кодирования : DivX 6.8.5 (UTC 2009-08-20)
Аудио
Идентификатор : 1
Формат : MPEG Audio
Версия формата : Version 1
Профиль формата : Layer 3
Идентификатор кодека : 55
Идентификатор кодека/Подсказка : MP3
Продолжительность : 1 ч. 42 м.
Вид битрейта : Постоянный
Битрейт : 128 Кбит/сек
Каналы : 1 канал
Частота : 48,0 КГц
Метод сжатия : С потерями
Размер потока : 93,5 Мбайт (10%)
Выравнивание : Соединение по промежуткам
Продолжительность промежутка : 24 мс. (0,60 видеокадр)
Время предзагрузки промежутка : 509 мс.
Скриншоты:
         

Рецензия, отзыв о фильме

Не назову этот фильм шедевром, но смотреть его было интересно, тем более в кино на широком экране. Постановочный размах довольно впечатляющий, Владимир Самойлов ярко, темпераментно сыграл роль Шаумяна. Еще помнится колоритнейший Фрунзик Мкртчян в небольшой, но яркой роли усатого маузериста Гочи. Несмотря на некоторую сумбурность драматургии, слишком большое количество лиц и событий для односерийного фильма, он дает представление о той трагичной эпохе, сложной и противоречивой политической обстановке в Закавказье и Баку в годы гражданской войны. В том числе и о существовавшей уже тогда вражде между азербайджанцами и армянами, доходившей до вооруженных столкновений. Эта вражда старательно разжигалась националистами с той и другой стороны. Сильно снята и финальная сцена расстрела комиссаров. Некоторые источники, правда, утверждают, что комиссары были не расстреляны, а зарублены или даже обезглавлены.
Время раздачи: с 10:00 до 01:00 /7
Вне форума [Профиль] [ЛС]
Показать сообщения:    
Ответить на тему

Текущее время: Сегодня 15:08

Часовой пояс: GMT + 3



Вы не можете начинать темы
Вы не можете отвечать на сообщения
Вы не можете редактировать свои сообщения
Вы не можете удалять свои сообщения
Вы не можете голосовать в опросах
Вы не можете прикреплять файлы к сообщениям
Вы не можете скачивать файлы