Today is a free download without charge Download

Кровь за кровь / Four Brothers (Джон Синглтон / John Singleton) [2005, США, боевик, триллер, драма, BDRip] Dub +2 MVO + AVO (Немахов) + Original (Eng) + Subs (Rus, Eng)

Reply to topic
 
Author
Message

Omen ®

Longevity: 8 years 5 months

Posts: 181087

Торрент-статистика

Post 27-Mar-2013 16:33

[Quote]

Кровь за кровьFour Brothers«Они вернулись домой, чтобы похоронить мать... и её убийц.»- Страна: США
Жанр: боевик, триллер, драма, криминал, детектив
Год выпуска: 2005
Продолжительность: 01:48:46-Перевод: Профессиональный (полное дублирование)
Перевод: Профессиональный |Многоголосый закадровый, Киномания|
Перевод: Профессиональный |Многоголосый закадровый, Tycoon|
Перевод: Авторский (одноголосый закадровый) (Немахов Юрий)
Оригинальная аудиодорожка: английский
Субтитры: русские, английские
Режиссер: Джон Синглтон / John Singleton
В ролях: Марк Уолберг, Тайриз Гибсон, Андре Бенджамин, Гаррет Хедлунд, Терренс Ховард, Джош Чарльз, София Вергара, Фионнула Флэнаган, Чиветель Эджиофор, Тараджи П. Хенсон, Бэрри Шебака Хенли, Джернард Буркс-Описание: Они вернулись домой, чтобы похоронить мать.. и её убийц... Их четверо, они братья, но абсолютно не похожи друг на друга. В детстве их усыновила и воспитала одна и та же женщина. Теперь она мертва, а братья пытаются найти ее убийцу и отплатить ему за пролитую кровь их матери. Чем больше братья занимаются поисками, тем ближе они становятся друг другу, осознавая, что родство душ связывает людей гораздо крепче, чем кровные узы.-


MPAA: R - Лицам до 17 лет обязательно присутствие взрослого-

Доп. Информация

Сценарий: Дэвид Эллиот / David Elliot, Пол Ловетт / Paul Lovett
Продюсер: Лоренцо Ди Бонавентура / Lorenzo di Bonaventura, Эрик Хаусэм / Erik Howsam, Рик Кидни / Ric Kidney, Шэрон Сето / Sharon Seto
Оператор: Питер Мензиес мл. / Peter Menzies Jr.
Композитор: Дэвид Арнольд / David Arnold
Бюджет: $45 000 000
Сборы в США: $74 494 381
Сборы в России: $280 000
Сборы в мире: $92 374 674
Мировая премьера: 12 августа 2005
Релиз на DVD: Май 2013, «Новый Диск»
-Качество: BDRip 720р
Контейнер: MKV
Видео: AVC, 1280x544 (2.35:1), 3978 kbps, 23,976 fps, 0,238 bpp
Аудио №1: русский / AC3 / 5.1 / 48 kHz / 384 kbps / 16 bit || Дубляж
Аудио №2: русский / AC3 / 5.1 / 48 kHz / 384 kbps / 16 bit || Киномания
Аудио №3: русский / AC3 / 5.1 / 48 kHz / 448 kbps / 16 bit || Tycoon
Аудио №4: русский / DTS / 5.1 / 48 kHz / 1510 kbps / 24 bit || Немахов
Аудио №5: английский / DTS / 5.1 / 48 kHz / 1510 kbps / 24 bit
Формат субтитров: softsub (SRT)-

Media Info

General
Unique ID : 249500994975607139017208137652756145174 (0xBBB424CC000097EC8DF88D827E6DE416)
Complete name : F:\Four.Brother.2005.720p.mkv
Format : Matroska
Format version : Version 2
File size : 6.37 GiB
Duration : 1h 48mn
Overall bit rate : 8 381 Kbps
Encoded date : UTC 2013-03-27 10:44:33
Writing application : mkvmerge v5.8.0 ('No Sleep / Pillow') built on Sep 2 2012 15:37:04
Writing library : libebml v1.2.3 + libmatroska v1.3.0
Video
ID : 1
Format : AVC
Format/Info : Advanced Video Codec
Format profile : [email protected]
Format settings, CABAC : Yes
Format settings, ReFrames : 12 frames
Codec ID : V_MPEG4/ISO/AVC
Duration : 1h 48mn
Bit rate : 3 978 Kbps
Width : 1 280 pixels
Height : 544 pixels
Display aspect ratio : 2.35:1
Frame rate : 23.976 fps
Color space : YUV
Chroma subsampling : 4:2:0
Bit depth : 8 bits
Scan type : Progressive
Bits/(Pixel*Frame) : 0.238
Stream size : 3.02 GiB (47%)
Writing library : x264 core 130 r2273 b3065e6
Encoding settings : cabac=1 / ref=12 / deblock=1:-2:-2 / analyse=0x3:0x113 / me=umh / subme=10 / psy=1 / psy_rd=1.00:0.15 / mixed_ref=1 / me_range=48 / chroma_me=1 / trellis=2 / 8x8dct=1 / cqm=0 / deadzone=21,11 / fast_pskip=1 / chroma_qp_offset=-3 / threads=12 / lookahead_threads=3 / sliced_threads=0 / nr=0 / decimate=1 / interlaced=0 / bluray_compat=0 / constrained_intra=0 / bframes=12 / b_pyramid=2 / b_adapt=2 / b_bias=0 / direct=3 / weightb=1 / open_gop=0 / weightp=2 / keyint=250 / keyint_min=24 / scenecut=40 / intra_refresh=0 / rc_lookahead=50 / rc=crf / mbtree=1 / crf=17.6 / qcomp=0.60 / qpmin=10 / qpmax=51 / qpstep=4 / vbv_maxrate=50000 / vbv_bufsize=62500 / crf_max=0.0 / nal_hrd=none / ip_ratio=1.40 / aq=2:1.00
Language : English
Default : Yes
Forced : No
Audio #1
ID : 2
Format : AC-3
Format/Info : Audio Coding 3
Mode extension : CM (complete main)
Codec ID : A_AC3
Duration : 1h 48mn
Bit rate mode : Constant
Bit rate : 384 Kbps
Channel(s) : 6 channels
Channel positions : Front: L C R, Side: L R, LFE
Sampling rate : 48.0 KHz
Bit depth : 16 bits
Compression mode : Lossy
Stream size : 299 MiB (5%)
Title : Дубляж
Language : Russian
Default : Yes
Forced : No
Audio #2
ID : 3
Format : AC-3
Format/Info : Audio Coding 3
Mode extension : CM (complete main)
Codec ID : A_AC3
Duration : 1h 48mn
Bit rate mode : Constant
Bit rate : 384 Kbps
Channel(s) : 6 channels
Channel positions : Front: L C R, Side: L R, LFE
Sampling rate : 48.0 KHz
Bit depth : 16 bits
Compression mode : Lossy
Stream size : 299 MiB (5%)
Title : Киномания
Language : Russian
Default : No
Forced : No
Audio #3
ID : 4
Format : AC-3
Format/Info : Audio Coding 3
Mode extension : CM (complete main)
Codec ID : A_AC3
Duration : 1h 48mn
Bit rate mode : Constant
Bit rate : 448 Kbps
Channel(s) : 6 channels
Channel positions : Front: L C R, Side: L R, LFE
Sampling rate : 48.0 KHz
Bit depth : 16 bits
Compression mode : Lossy
Stream size : 349 MiB (5%)
Title : Tucoon
Language : Russian
Default : No
Forced : No
Audio #4
ID : 5
Format : DTS
Format/Info : Digital Theater Systems
Codec ID : A_DTS
Duration : 1h 48mn
Bit rate mode : Constant
Bit rate : 1 510 Kbps
Channel(s) : 6 channels
Channel positions : Front: L C R, Side: L R, LFE
Sampling rate : 48.0 KHz
Bit depth : 24 bits
Compression mode : Lossy
Stream size : 1.15 GiB (18%)
Title : Немахов
Language : Russian
Default : No
Forced : No
Audio #5
ID : 6
Format : DTS
Format/Info : Digital Theater Systems
Codec ID : A_DTS
Duration : 1h 48mn
Bit rate mode : Constant
Bit rate : 1 510 Kbps
Channel(s) : 6 channels
Channel positions : Front: L C R, Side: L R, LFE
Sampling rate : 48.0 KHz
Bit depth : 24 bits
Compression mode : Lossy
Stream size : 1.15 GiB (18%)
Title : English
Language : English
Default : No
Forced : No
Text #1
ID : 7
Format : UTF-8
Codec ID : S_TEXT/UTF8
Codec ID/Info : UTF-8 Plain Text
Language : Russian
Default : No
Forced : No
Text #2
ID : 8
Format : UTF-8
Codec ID : S_TEXT/UTF8
Codec ID/Info : UTF-8 Plain Text
Language : English
Default : No
Forced : No

х264

x264 [info]: frame I:1253 Avg QP:15.14 size:146799
x264 [info]: frame P:32374 Avg QP:19.11 size: 45612
x264 [info]: frame B:122853 Avg QP:22.17 size: 13992
x264 [info]: consecutive B-frames: 2.0% 2.4% 5.6% 19.7% 17.9% 33.0% 7.0% 6.6% 2.4% 1.1% 0.7% 1.0% 0.4%
x264 [info]: mb I I16..4: 14.7% 57.6% 27.7%
x264 [info]: mb P I16..4: 1.7% 11.5% 1.8% P16..4: 32.7% 24.9% 16.4% 0.0% 0.0% skip:11.0%
x264 [info]: mb B I16..4: 0.1% 1.6% 0.2% B16..8: 39.2% 11.2% 3.5% direct: 6.2% skip:38.0% L0:44.2% L1:42.0% BI:13.7%
x264 [info]: 8x8 transform intra:76.1% inter:56.3%
x264 [info]: direct mvs spatial:99.9% temporal:0.1%
x264 [info]: coded y,uvDC,uvAC intra: 86.0% 76.9% 54.3% inter: 28.7% 19.3% 6.9%
x264 [info]: i16 v,h,dc,p: 43% 13% 15% 29%
x264 [info]: i8 v,h,dc,ddl,ddr,vr,hd,vl,hu: 9% 10% 9% 9% 13% 12% 14% 11% 14%
x264 [info]: i4 v,h,dc,ddl,ddr,vr,hd,vl,hu: 10% 9% 5% 9% 15% 13% 14% 11% 14%
x264 [info]: i8c dc,h,v,p: 44% 23% 17% 16%
x264 [info]: Weighted P-Frames: Y:1.2% UV:0.5%
x264 [info]: ref P L0: 40.9% 10.1% 19.6% 6.4% 6.5% 3.9% 4.1% 1.8% 2.2% 1.4% 1.7% 1.3% 0.1% 0.0%
x264 [info]: ref B L0: 68.9% 13.1% 6.2% 3.4% 2.4% 2.1% 1.5% 1.0% 0.8% 0.5% 0.2%
x264 [info]: ref B L1: 92.2% 7.8%
x264 [info]: kb/s:4142.51

Скриншоты

Other forum [Profile] [PM]
Display posts from previous:    
Reply to topic

The time now is: Today 13:47

All times are GMT + 3 Hours



You cannot post new topics in this forum
You cannot reply to topics in this forum
You cannot edit your posts in this forum
You cannot delete your posts in this forum
You cannot vote in polls in this forum
You cannot attach files in this forum
You cannot download files in this forum