Today is a free download without charge Download

Основной инстинкт / Basic Instinct (Пол Верховен)[1992] |Основной инстинкт 2: Жажда риска / Basic Instinct 2 (Майкл Кейтон-Джонс) [2006 г.,] [ триллер, детектив, BDRip720p]

Reply to topic
 
Author
Message

Delia ®

Gender:

Longevity: 9 years 6 months

Posts: 1821

Торрент-статистика

Post 08-Jul-2011 02:23

[Quote]

--Основной инстинктBasic Instinct
Год выпуска: 1992
Страна: США, Франция
Жанр: триллер, детектив
Продолжительность: 02.08.15
Перевод: Профессиональный (полное дублирование)
Режиссер: Пол Верховен
Продюссер: Уильям С. Бисли, Луис Д’Эспозито, Марио Кассар
Сценарий: Джо Эстерхаз
Бюджет: $49 000 000
Премьера в мире: 20 марта 1992
В ролях: Майкл Дуглас, Шэрон Стоун, Джордж Зунза, Джинн Трипплхорн, Денис Арндт, Лейлани Сарелл, Брюс А. Янг, Челси Росс, Дороти Мэлоун, Уэйн Найт
Описание: Детектив Ник Каррен ведет расследование по делу об извращенном убийстве на сексуальной почве. Подозрение падает на подругу убитого Кэтрин — писательницу, автора шокирующих романов, которая в своей последней книге подробно описала абсолютно аналогичное преступление.Но обворожительная, неимоверно сексуальная писательница, обладает удивительной способностью манипулировать мужчинами, пробудив в них один из самых основных инстинктов.
Качество: BDRip720p
Формат: MKV
Видео кодек: H.264
Аудио кодек: AC3
Видео: English, 4112 Кбит/сек, 1280*544 (2,35:1), в 23,976 кадр/сек, AVC ([email protected])
Аудио: Russian, 448 Кбит/сек, 48,0 КГц, 16 бит, 6 канала(ов), AC-3
Аудио:English, 320 Кбит/сек, 48,0 КГц, 16 бит, 6 канала(ов), AC-3
Субтитры:Russian, English - VobSub

MI:

Скриншоты

               
--Основной инстинкт 2: Жажда риска Basic Instinct 2 Год выпуска: 2006
Страна: США, Германия, Великобритания, Испания
Жанр: триллер, криминал, детектив
Продолжительность: 01:54:00
Перевод: Профессиональный (полное дублирование)
Режиссер: Майкл Кейтон-Джонс
Продюссер: Эндрю Дж. Вайна, Марио Кассар, Джоэль Б. Майклс
Сценарий: Лиора Бэриш, Генри Бин, Джо Эстерхаз
Бюджет: $70 000 000
Премьера в мире: 21 марта 2006
В ролях: Стэн Коллимор, Шэрон Стоун, Нил Мэскелл, Дэвид Тьюлис, Жан Чаппель, Дэвид Моррисси, Теренс Харви, Хью Дэнси, Эллен Томас, Марк Сэнгстер
Описание: На писательницу Кэтрин Трэммел вновь падает подозрение в причастности к преступлению. Скотланд-Ярд отряжает обращается к доктору Майклу Глассу за помощью в профессиональном заключении о состоянии психического здоровья Кэтрин. Но Гласс, как когда-то детектив Каррен, попадает под чары роковой женщины.
Качество: BDRip720p
Формат: MKV
Видео кодек: H.264
Аудио кодек: AC3
Видео: English, 4529 Кбит/сек, 1280*528 (2,40:1), в 23,976 кадр/сек, AVC ([email protected])
Аудио: Russian, 640 Кбит/сек, 48,0 КГц, 16 бит, 6 канала(ов), AC-3
Аудио:English, 320 Кбит/сек, 48,0 КГц, 16 бит, 6 канала(ов), AC-3
Cубтитры:Russian, English - VobSub

MI:

Общее
Уникальный идентификатор : 187873498261317836920992530477721221623 (0x8D571E9E7CC5117485AC34D5F03279F7)
Полное имя : F:\торрент\Basic Instinct(1992).Basic Instinct 2(2006) BDRip720p\Basic Instinct 2 (2006)BDRip720p.mkv
Формат : Matroska
Размер файла : 4,38 Гбайт
Продолжительность : 1 ч. 54 м.
Общий поток : 5495 Кбит/сек
Дата кодирования : UTC 2011-07-07 21:17:19
Программа кодирования : mkvmerge v4.8.0 ('I Got The...') built on May 24 2011 03:12:58
Библиотека кодирования : libebml v1.2.0 + libmatroska v1.1.0
Видео
Идентификатор : 1
Формат : AVC
Формат/Информация : Advanced Video Codec
Профиль формата : [email protected]
Параметр CABAC формата : Да
Параметр ReFrames формата : 12 кадры
Параметры GOP формата : M=1, N=32
Идентификатор кодека : V_MPEG4/ISO/AVC
Продолжительность : 1 ч. 54 м.
Битрейт : 4529 Кбит/сек
Ширина : 1280 пикс.
Высота : 528 пикс.
Соотношение сторон : 2,40:1
Частота кадров : 23,976 кадр/сек
Цветовое пространство : YUV
Подвыборка цветности : 4:2:0
Битовая глубина : 8 бит
Тип развёртки : Прогрессивная
Бит/(Пиксели*Кадры) : 0.279
Размер потока : 3,52 Гбайт (81%)
Библиотека кодирования : x264 core 115 r2008 4c552d8
Настройки программы : cabac=1 / ref=12 / deblock=1:-3:-3 / analyse=0x3:0x133 / me=umh / subme=8 / psy=1 / psy_rd=1.00:0.15 / mixed_ref=1 / me_range=36 / chroma_me=1 / trellis=2 / 8x8dct=1 / cqm=0 / deadzone=21,11 / fast_pskip=1 / chroma_qp_offset=-3 / threads=6 / sliced_threads=0 / nr=0 / decimate=1 / interlaced=0 / bluray_compat=0 / constrained_intra=0 / bframes=8 / b_pyramid=2 / b_adapt=2 / b_bias=0 / direct=3 / weightb=1 / open_gop=0 / weightp=2 / keyint=250 / keyint_min=24 / scenecut=40 / intra_refresh=0 / rc_lookahead=50 / rc=2pass / mbtree=1 / bitrate=4529 / ratetol=1.0 / qcomp=0.60 / qpmin=0 / qpmax=69 / qpstep=4 / cplxblur=20.0 / qblur=0.5 / ip_ratio=1.40 / aq=1:1.00
Язык : English
Аудио #1
Идентификатор : 2
Формат : AC-3
Формат/Информация : Audio Coding 3
Расширение режима : CM (complete main)
Идентификатор кодека : A_AC3
Продолжительность : 1 ч. 54 м.
Вид битрейта : Постоянный
Битрейт : 640 Кбит/сек
Канал(ы) : 6 канала(ов)
Расположение каналов : Front: L C R, Side: L R, LFE
Частота : 48,0 КГц
Битовая глубина : 16 бит
Метод сжатия : С потерями
Размер потока : 522 Мбайт (12%)
Язык : Russian
Аудио #2
Идентификатор : 3
Формат : AC-3
Формат/Информация : Audio Coding 3
Расширение режима : CM (complete main)
Идентификатор кодека : A_AC3
Продолжительность : 1 ч. 54 м.
Вид битрейта : Постоянный
Битрейт : 320 Кбит/сек
Канал(ы) : 6 канала(ов)
Расположение каналов : Front: L C R, Side: L R, LFE
Частота : 48,0 КГц
Битовая глубина : 16 бит
Метод сжатия : С потерями
Размер потока : 261 Мбайт (6%)
Язык : English
Текст #1
Идентификатор : 4
Формат : VobSub
Режим смешивания : zlib
Идентификатор кодека : S_VOBSUB
Идентификатор кодека/Информация : The same subtitle format used on DVDs
Язык : Russian
Текст #2
Идентификатор : 5
Формат : VobSub
Режим смешивания : zlib
Идентификатор кодека : S_VOBSUB
Идентификатор кодека/Информация : The same subtitle format used on DVDs
Язык : English
Меню
00:00:00.000 : en:00:00:00.000
00:08:04.901 : en:00:08:04.901
00:15:15.748 : en:00:15:15.748
00:19:40.221 : en:00:19:40.221
00:28:33.128 : en:00:28:33.128
00:38:08.786 : en:00:38:08.786
00:43:50.253 : en:00:43:50.253
00:49:06.944 : en:00:49:06.944
00:56:39.062 : en:00:56:39.062
01:04:57.435 : en:01:04:57.435
01:11:40.796 : en:01:11:40.796
01:19:57.960 : en:01:19:57.960
01:27:03.260 : en:01:27:03.260
01:32:29.753 : en:01:32:29.753
01:39:09.110 : en:01:39:09.110
01:43:20.194 : en:01:43:20.194

Скриншоты

               

_________________
Человек – это канат, натянутый между животным и сверхчеловеком, – канат над пропастью.
В человеке ценно то, что он мост, а не цель. Фридрих Ницше


Last edited by Delia on 2011-08-26 17:48; edited 1 time in total
Other forum [Profile] [PM]
Similar theme
Forum Topic Author Torrent Replies Last Post
./templates/default/images/folder_dl.gif Обучающее видео Специалист | Основы экономики для руководителей, менеджеров и специалистов (2014) PCRec Omen
1 | 0

0 | 2927

49

2014-10-24 22:25
Omen Latest
./templates/default/images/folder_dl.gif Обучающее видео Евгений Спирица | Слова. Лживые и Настоящие. Основные стереотипы речи лжеца (2013) CAMRip Omen
1 | 0

0 | 1031

11

2014-11-16 13:57
Omen Latest
./templates/default/images/folder_dl.gif Обучающее видео [Udemy.com / Brilley Batley] Освоение основ частных производных / Master the Fundamentals of Partial Derivates [2016, математика, WebRip, ENG] (Видеоурок) Omen
1 | 0

0 | 470

0

2016-01-26 00:01
Omen Latest
./templates/default/images/folder_dl.gif Обучающее видео Специалист | Основы Linux (2016) PCRec Omen
0 | 1

0 | 1910

89

2016-03-09 18:37
Omen Latest
./templates/default/images/folder_dl.gif Для детей, родителей и учителей Сара Джордан, Дэвид Уфберг | Беременность. Руководство пользователя. Основная информация, рекомендации по устранению неполадок, советы будущим родителям (2016) [FB2] }{@R0N
1 | 0

0 | 1764

3

2016-11-04 21:45
}{@R0N Latest
./templates/default/images/folder_dl.gif Обучающее видео [Учебный центр №1 "Фирма 1С"] Основы программирования в системе "1C:Предприятие 8.3" [2015, RUS] Omen
2 | 0

0 | 1559

58

2017-01-09 01:00
Omen Latest
./templates/default/images/folder_dl.gif Бизнес, Право, Экономика, Финансы Даниэль Дрешер | Основы блокчейна: вводный курс для начинающих в 25 небольших главах (2018) [PDF, RTF] }{@R0N
1 | 0

0 | 1666

17

2018-02-14 20:29
}{@R0N Latest
./templates/default/images/folder_dl.gif Обучающее видео ProfIT | Redis - основы и практическое использование (2019) PCRec [H.264] Anonymous
1 | 0

0 | 271

0

2019-06-17 22:52
Anonymous Latest
Display posts from previous:    
Reply to topic

The time now is: Today 18:19

All times are GMT + 3 Hours



You cannot post new topics in this forum
You cannot reply to topics in this forum
You cannot edit your posts in this forum
You cannot delete your posts in this forum
You cannot vote in polls in this forum
You cannot attach files in this forum
You cannot download files in this forum