Today is a free download without charge Download

Раз! Два! Три! Умри! / Sightseers ( Бен Уитли ) (2012, Комедия ) BDRip [1080p] [EN]

Reply to topic
 
Author
Message

Витек1 ®

Gender:

Longevity: 8 years 3 months

Posts: 451

Location: Житомир

Торрент-статистика

Post 27-Mar-2013 13:13

[Quote]

Раз! Два! Три! Умри! / Sightseers - Русское название: Раз! Два! Три! Умри!
Оригинальное название: Sightseers
Год выпуска: 2012
Жанр: Комедия
Описание фильма:
Самая обычная влюбленная парочка, Тина и Крис, отправляются в самое обычное путешествие по северу Англии в самом обычном фургончике. Внешне они ничем не отличаются от типичных английских туристов — милые, похотливые и одержимые друг другом зануды, которых раздражает и бесит практически всё: от шумных сектантов и брошенной на пол в автобусе обертки мороженого до обидных слов в свой адрес и хвастовства случайных милых знакомых.
Вот только Крис совсем не относится к числу тех, кто готов мириться с «раздражителями», а Тина окажется вовсе не так невинна: идеальные убойные каникулы влюбленных начинаются в Англии.
Режиссер: Бен Уитли
Актеры: Элис Лоу, Стив Орам, Эйлин Дейвис, Ричард Гловер, Моника Долан
Продолжительность: 01:28:10
Перевод: Отсутствует
Язык: Английский

Видеокодек: MPEG-4 AVC/H.264
Битрейт видео: ~8 100 Kbps
Размер кадра: 1920x816
Качество видео: BDRip
Аудиокодек: DTS : 6 channels
Битрейт аудио: 755 Kbps
Сэмпл: Ссылка

Screenlist

 

MediaInfo

Sightseers.1080p.mkv
Format : Matroska
Format version : Version 2
File size : 5.46 GiB
Duration : 1h 28mn
Overall bit rate : 8 863 Kbps
Writing application : mkvmerge v4.1.1 ('Bouncin' Back') built on Jul 3 2010 22:54:08
Writing library : libebml v1.0.0 + libmatroska v1.0
Video
ID : 1
Format : AVC
Format/Info : Advanced Video Codec
Format profile : [url=mailto:[email protected]][email protected][/url]
Format settings, CABAC : Yes
Format settings, ReFrames : 5 frames
Codec ID : V_MPEG4/ISO/AVC
Duration : 1h 28mn
Bit rate : 8 100 Kbps
Width : 1 920 pixels
Height : 816 pixels
Display aspect ratio : 2.35:1
Frame rate : 23.976 fps
Color space : YUV
Chroma subsampling : 4:2:0
Bit depth : 8 bits
Scan type : Progressive
Bits/(Pixel*Frame) : 0.216
Stream size : 4.88 GiB (89%)
Writing library : x264 core 130 r2273 b3065e6
Encoding settings : cabac=1 / ref=5 / deblock=1:0:0 / analyse=0x3:0x133 / me=umh / subme=7 / psy=1 / psy_rd=1.00:0.00 / mixed_ref=1 / me_range=16 / chroma_me=1 / trellis=1 / 8x8dct=1 / cqm=0 / deadzone=21,11 / fast_pskip=0 / chroma_qp_offset=-2 / threads=12 / lookahead_threads=2 / sliced_threads=0 / nr=0 / decimate=1 / interlaced=0 / bluray_compat=0 / constrained_intra=0 / bframes=3 / b_pyramid=2 / b_adapt=1 / b_bias=0 / direct=1 / weightb=1 / open_gop=0 / weightp=2 / keyint=250 / keyint_min=23 / scenecut=40 / intra_refresh=0 / rc_lookahead=40 / rc=2pass / mbtree=1 / bitrate=8100 / ratetol=1.0 / qcomp=0.60 / qpmin=0 / qpmax=69 / qpstep=4 / cplxblur=20.0 / qblur=0.5 / ip_ratio=1.40 / aq=1:1.00
Language : English
Default : Yes
Forced : No
Audio
ID : 2
Format : DTS
Format/Info : Digital Theater Systems
Codec ID : A_DTS
Duration : 1h 28mn
Bit rate mode : Constant
Bit rate : 755 Kbps
Channel(s) : 6 channels
Channel positions : Front: L C R, Side: L R, LFE
Sampling rate : 48.0 KHz
Bit depth : 24 bits
Compression mode : Lossy
Stream size : 476 MiB (9%)
Title : English DTS
Language : English
Default : Yes
Forced : No
Menu
00:00:00.000 : en:00:00:00.000
00:07:39.709 : en:00:07:39.709
00:14:34.499 : en:00:14:34.499
00:22:28.389 : en:00:22:28.389
00:29:28.934 : en:00:29:28.934
00:35:56.571 : en:00:35:56.571
00:43:49.377 : en:00:43:49.377
00:51:26.166 : en:00:51:26.166
01:00:20.575 : en:01:00:20.575
01:08:21.806 : en:01:08:21.806
01:14:01.771 : en:01:14:01.771
01:20:35.581 : en:01:20:35.581
Скриншоты:
       

_________________
Скачал сам, дай скачать другому!!!Не забудь сказать -
Other forum [Profile] [PM]

Dracula

Longevity: 7 years 5 months

Posts: 11216

Торрент-статистика

Post 02-May-2013 10:20 (after 1 month 5 days)

Топик был перенесен из форума Зарубежное кино (DVD) в форум Зарубежное кино (HD Video)


RUGUI
 
Display posts from previous:    
Reply to topic

The time now is: Today 10:27

All times are GMT + 3 Hours



You cannot post new topics in this forum
You cannot reply to topics in this forum
You cannot edit your posts in this forum
You cannot delete your posts in this forum
You cannot vote in polls in this forum
You cannot attach files in this forum
You cannot download files in this forum