Today is a free download without charge Download

Инопланетяне раскрывают свои планы: День оцепеневшего запада / Alien Showdown: The Day the Old West Stood Still ( Рене Перез ) (2013, Ужасы, Фантастика, Боевик ) BDRip [720p] [EN]

Reply to topic
 
Author
Message

Витек1 ®

Gender:

Longevity: 8 years 3 months

Posts: 451

Location: Житомир

Торрент-статистика

Post 27-Mar-2013 13:08

[Quote]

Инопланетяне раскрывают свои планы: День оцепеневшего запада / Alien Showdown: The Day the Old West Stood Still [EN]- Русское название: Инопланетяне раскрывают свои планы: День оцепеневшего запада
Оригинальное название: Alien Showdown: The Day the Old West Stood Still
Год выпуска: 2013
Жанр: Ужасы, Фантастика, Боевик
Описание фильма:
Инопланетяне отправили своих разведчиков в разные части вселенной в поисках воды и пищи. Им приказано докладывать, когда и где они находят эти предметы потребления. Это 1854 год, когда инопланетянин приземлился. Он уверен, что найдет воду и пищу в изобилии, и скоро атакующий инопланетный флот придет для уничтожения людей и захвата их земель.
Одинокому ковбою предназначено судьбой борьба с чужеродным разведчиком, прежде чем тот сможет вернуться на родину с информацией.
Режиссер: Рене Перез
Актеры: Роберт Амстлер, Надия Ланфранкони, Джон Дж. Уэлш, Джемма Донато, Тед Олдермен
Продолжительность: 01:17:35
Перевод: Отсутствует
Язык: Английский

Видеокодек: MPEG-4 AVC/H.264
Битрейт видео: ~4 528 Kbps
Размер кадра: 1280x720
Качество видео: BDRip
Аудиокодек: DTS : 6 channels
Битрейт аудио: 1 510 Kbps
Сэмпл: Ссылка

Screenlist

 

MediaInfo

Alien Showdown The Day the Old West Stood Still-720p.mkv
Format : Matroska
Format version : Version 2
File size : 3.27 GiB
Duration : 1h 17mn
Overall bit rate : 6 039 Kbps
Writing application : mkvmerge v4.1.1 ('Bouncin' Back') built on Jul 3 2010 22:54:08
Writing library : libebml v1.0.0 + libmatroska v1.0
Video
ID : 1
Format : AVC
Format/Info : Advanced Video Codec
Format profile : [url=mailto:[email protected]][email protected][/url]
Format settings, CABAC : Yes
Format settings, ReFrames : 5 frames
Codec ID : V_MPEG4/ISO/AVC
Duration : 1h 17mn
Bit rate : 4 528 Kbps
Width : 1 280 pixels
Height : 720 pixels
Display aspect ratio : 16:9
Frame rate : 23.976 fps
Color space : YUV
Chroma subsampling : 4:2:0
Bit depth : 8 bits
Scan type : Progressive
Bits/(Pixel*Frame) : 0.205
Stream size : 2.39 GiB (73%)
Writing library : x264 core 130 r2273 b3065e6
Encoding settings : cabac=1 / ref=5 / deblock=1:0:0 / analyse=0x3:0x133 / me=umh / subme=7 / psy=1 / psy_rd=1.00:0.00 / mixed_ref=1 / me_range=16 / chroma_me=1 / trellis=1 / 8x8dct=1 / cqm=0 / deadzone=21,11 / fast_pskip=0 / chroma_qp_offset=-2 / threads=18 / lookahead_threads=3 / sliced_threads=0 / nr=0 / decimate=1 / interlaced=0 / bluray_compat=0 / constrained_intra=0 / bframes=3 / b_pyramid=2 / b_adapt=1 / b_bias=0 / direct=1 / weightb=1 / open_gop=0 / weightp=2 / keyint=240 / keyint_min=23 / scenecut=40 / intra_refresh=0 / rc_lookahead=40 / rc=2pass / mbtree=1 / bitrate=4528 / ratetol=1.0 / qcomp=0.60 / qpmin=10 / qpmax=69 / qpstep=4 / cplxblur=20.0 / qblur=0.5 / ip_ratio=1.40 / aq=1:1.00
Language : English
Default : Yes
Forced : No
Audio
ID : 2
Format : DTS
Format/Info : Digital Theater Systems
Codec ID : A_DTS
Duration : 1h 17mn
Bit rate mode : Constant
Bit rate : 1 510 Kbps
Channel(s) : 6 channels
Channel positions : Front: L C R, Side: L R, LFE
Sampling rate : 48.0 KHz
Bit depth : 16 bits
Compression mode : Lossy
Stream size : 838 MiB (25%)
Language : English
Default : Yes
Forced : No
Menu
00:00:00.000 : en:00:00:00.000
00:09:59.974 : en:00:09:59.974
00:19:59.990 : en:00:19:59.990
00:29:59.964 : en:00:29:59.964
00:39:59.980 : en:00:39:59.980
00:49:59.955 : en:00:49:59.955
00:59:59.971 : en:00:59:59.971
01:09:59.945 : en:01:09:59.945
Скриншоты:
       

_________________
Скачал сам, дай скачать другому!!!Не забудь сказать -
Other forum [Profile] [PM]
Display posts from previous:    
Reply to topic

The time now is: Today 12:32

All times are GMT + 3 Hours



You cannot post new topics in this forum
You cannot reply to topics in this forum
You cannot edit your posts in this forum
You cannot delete your posts in this forum
You cannot vote in polls in this forum
You cannot attach files in this forum
You cannot download files in this forum