Today is a free download without charge Download

Страх и вожделение / Fear and Desire (Стэнли Кубрик / Stanley Kubrick) [1953, США, Военный, BDRip 720p] + Sub Rus + Original Eng

Reply to topic
 
Author
Message

Omen ®

Longevity: 8 years 5 months

Posts: 181087

Торрент-статистика

Post 27-Mar-2013 12:25

[Quote]

Страх и вожделение-Fear and Desire Страна: США
Жанр: Военный
Год выпуска: 1953
Продолжительность: 01:01:00
Перевод: Субтитры
Cубтитры: русские
Оригинальная аудиодорожка: английский
Режиссер: Стэнли Кубрик / Stanley Kubrick
В ролях: Фрэнк Сильвера, Пол Мазурски, Кеннет Харп, Стивен Койт, Вирджиния Лейт, Дэвид Аллен
Описание: Первый полнометражный фильм Стэнли Кубрика.
Сценарий к фильму был написан одноклассником Кубрика (по школе Уильяма Тафа), Говардом Сарклером, который позже выиграет Пулитцеровскую премию за написание пьесы «Великая белая надежда» (англ. The Great White Hope) поставленной в 1968 году. Пол Мазурски, сыгравший одного из солдат фильма, впоследствии прославился на режиссерском поприще благодаря фильмам «Гарри и Тонто» и «Незамужняя женщина». Съемки фильма спонсировались из личных средств семьи Кубрика и его друзей. Наиболее крупный взнос внес дядя Кубрика, Мартин Плевер, который был владельцем прибыльного аптечного ларька. Бюджет фильма был оценен в сумму 10000$.
Спустя годы с момента релиза фильм считался утерянным. Джозеф Берстин, дистрибьютор фильма, обанкротился и отошел от дел, а Кубрик потратил множество усилий, чтобы изъять все известные копии фильма, с целью того, чтобы фильм никогда больше не был просмотрен. Однако по прошествии времени некоторые копии фильма оставались в частных коллекциях. В более поздние годы, сам Кубрик смущался от упоминания этого фильма, который он стал называть любительской работой.
Доп. информация: Добавлены английские и русские субтитры за авторством doc_ravik. Спасибо.
ПО: mkvmerge,subtitleworkshop
Тип релиза: BDRip 720p
Контейнер: MKV
Видео: AVC 976x720 23.98fps 5567 Kbps
Аудио: English AC3 48000Hz 2ch 640Kbps
Формат субтитров: softsub (SRT)

MediaInfo

Complete name : I:\BDRip 720p Fear and Desire.mkv
Format : Matroska
Format version : Version 2
File size : 2.65 GiB
Duration : 1h 1mn
Overall bit rate : 6 208 Kbps
Encoded date : UTC 2013-03-27 07:19:02
Writing application : mkvmerge v5.1.0 ('And so it goes') built on Nov 28 2011 23:58:28
Writing library : libebml v1.2.3 + libmatroska v1.3.0
Video
ID : 1
Format : AVC
Format/Info : Advanced Video Codec
Format profile : [email protected]
Format settings, CABAC : Yes
Format settings, ReFrames : 5 frames
Codec ID : V_MPEG4/ISO/AVC
Duration : 1h 1mn
Bit rate : 5 567 Kbps
Width : 976 pixels
Height : 720 pixels
Display aspect ratio : 4:3
Frame rate : 23.976 fps
Color space : YUV
Chroma subsampling : 4:2:0
Bit depth : 8 bits
Scan type : Progressive
Bits/(Pixel*Frame) : 0.330
Stream size : 2.32 GiB (88%)
Writing library : x264 core 129 r2230 1cffe9f
Encoding settings : cabac=1 / ref=5 / deblock=1:0:0 / analyse=0x3:0x113 / me=umh / subme=8 / psy=1 / psy_rd=1.00:0.00 / mixed_ref=1 / me_range=16 / chroma_me=1 / trellis=1 / 8x8dct=1 / cqm=0 / deadzone=21,11 / fast_pskip=1 / chroma_qp_offset=-2 / threads=12 / lookahead_threads=2 / sliced_threads=0 / nr=0 / decimate=1 / interlaced=0 / bluray_compat=0 / constrained_intra=0 / bframes=3 / b_pyramid=2 / b_adapt=2 / b_bias=0 / direct=3 / weightb=1 / open_gop=0 / weightp=2 / keyint=240 / keyint_min=24 / scenecut=40 / intra_refresh=0 / rc_lookahead=50 / rc=2pass / mbtree=1 / bitrate=5567 / ratetol=1.0 / qcomp=0.60 / qpmin=0 / qpmax=69 / qpstep=4 / cplxblur=20.0 / qblur=0.5 / ip_ratio=1.40 / aq=1:1.00
Language : English
Default : Yes
Forced : No
Audio
ID : 2
Format : AC-3
Format/Info : Audio Coding 3
Mode extension : CM (complete main)
Codec ID : A_AC3
Duration : 1h 1mn
Bit rate mode : Constant
Bit rate : 640 Kbps
Channel(s) : 2 channels
Channel positions : Front: L R
Sampling rate : 48.0 KHz
Bit depth : 16 bits
Compression mode : Lossy
Stream size : 279 MiB (10%)
Language : English
Default : Yes
Forced : No
Text #1
ID : 3
Format : UTF-8
Codec ID : S_TEXT/UTF8
Codec ID/Info : UTF-8 Plain Text
Language : Russian
Default : Yes
Forced : No
Text #2
ID : 4
Format : UTF-8
Codec ID : S_TEXT/UTF8
Codec ID/Info : UTF-8 Plain Text
Language : English
Default : No
Forced : No

Скриншоты

Other forum [Profile] [PM]
Display posts from previous:    
Reply to topic

The time now is: Today 10:18

All times are GMT + 3 Hours



You cannot post new topics in this forum
You cannot reply to topics in this forum
You cannot edit your posts in this forum
You cannot delete your posts in this forum
You cannot vote in polls in this forum
You cannot attach files in this forum
You cannot download files in this forum