Today is a free download without charge Download

Земля из космоса / Earth from space ( Майкл Кениг ) (2013, Документальный, научный-популярный, исследования, космос ) HDTV [1080p]

Reply to topic
 
Author
Message

Витек1 ®

Gender:

Longevity: 8 years 3 months

Posts: 451

Location: Житомир

Торрент-статистика

Post 27-Mar-2013 12:11

[Quote]

Земля из космоса / Earth from space - Режиссер / Телекомпания: NGTV HD
Русское название: Земля из космоса
Оригинальное название: Earth from space
Год выпуска: 2013
Жанр: Документальный, научный-популярный, исследования, космос
Выпущено: США, Fly Over, НАСА
Описание:
Земля из космоса приглашает вас на эпические поиски обнаружения невидимых сил и процессов, которые поддерживают жизнь на нашей планете и впервые вы увидите их в действии в их естественной среде в ярких деталях. Эти поистине уникальные изображения будут изучать глубочайшие тайны существования, вызвав глубокие вопросы и сложные старые предположения о том, как работает система Земли.
Режиссёр: Майкл Кениг
Перевод: Профессиональный одноголосый
Продолжительность: ~ 01:52:04
Видеокодек: MPEG2
Битрейт видео: ~14,1 Мбит/сек
Размер кадра: 1920 x 1080
Качество видео: HDTV
Аудио (русский): AC-3, 2ch., 224 kb/s
Аудио (английский): AC-3, 2ch., 384 kb/s

MediaInfo

Формат : Matroska
Версия формата : Version 4 / Version 2
Размер файла : 11,8 Гбайт
Продолжительность : 1 ч. 52 м.
Режим общего битрейта : Переменный
Общий поток : 15,0 Мбит/сек
Дата кодирования : UTC 2013-03-25 08:21:03
Программа кодирования : mkvmerge v6.1.0 ('Old Devil') built on Mar 2 2013 14:32:37
Библиотека кодирования : libebml v1.3.0 + libmatroska v1.4.0
Видео
Идентификатор : 1
Формат : MPEG Video
Версия формата : Version 2
Профиль формата : [email protected]
Параметр BVOP формата : Нет
Параметр матрицы формата : По умолчанию
Идентификатор кодека : V_MPEG2
Идентификатор кодека/Информация : MPEG 1 or 2 Video
Продолжительность : 1 ч. 52 м.
Вид битрейта : Переменный
Битрейт : 14,1 Мбит/сек
Ширина : 1920 пикселей
Высота : 1080 пикселей
Соотношение сторон : 16:9
Частота кадров : 29,970 кадров/сек
Цветовое пространство : YUV
Субдискретизация насыщенности : 4:2:0
Битовая глубина : 8 бит
Тип развёртки : Прогрессивная
Метод сжатия : С потерями
Бит/(Пиксели*Кадры) : 0.227
Размер потока : 11,0 Гбайт (94%)
Default : Да
Forced : Нет
Аудио #1
Идентификатор : 2
Формат : AC-3
Формат/Информация : Audio Coding 3
Профиль формата : Dolby Digital
Расширение режима : CM (complete main)
Идентификатор кодека : A_AC3
Продолжительность : 1 ч. 52 м.
Вид битрейта : Постоянный
Битрейт : 224 Кбит/сек
Каналы : 2 канала
Расположение каналов : Front: L R
Частота : 48,0 КГц
Битовая глубина : 16 бит
Метод сжатия : С потерями
Размер потока : 180 Мбайт (1%)
Default : Нет
Forced : Нет
Аудио #2
Идентификатор : 3
Формат : AC-3
Формат/Информация : Audio Coding 3
Расширение режима : CM (complete main)
Идентификатор кодека : A_AC3
Продолжительность : 1 ч. 52 м.
Вид битрейта : Постоянный
Битрейт : 384 Кбит/сек
Каналы : 2 канала
Расположение каналов : Front: L R
Частота : 48,0 КГц
Битовая глубина : 16 бит
Метод сжатия : С потерями
Размер потока : 308 Мбайт (3%)
Язык : English
Default : Да
Forced : Нет
Скриншоты:          
         

_________________
Скачал сам, дай скачать другому!!!Не забудь сказать -
Other forum [Profile] [PM]
Display posts from previous:    
Reply to topic

The time now is: Today 05:32

All times are GMT + 3 Hours



You cannot post new topics in this forum
You cannot reply to topics in this forum
You cannot edit your posts in this forum
You cannot delete your posts in this forum
You cannot vote in polls in this forum
You cannot attach files in this forum
You cannot download files in this forum