Today is a free download without charge Download

Игорь Назарук - Коляда-Карпатское Новогодье. (1982-83) [MP3|320 кб/с]<Jazz>

Reply to topic
 
Author
Message

UndegraundMen ®

Longevity: 8 years 11 months

Posts: 25145

Торрент-статистика

Post 27-Mar-2013 10:37

[Quote]

Игорь Назарук - Коляда-Карпатское Новогодье. (1982-83)- Год: 1982-83
Жанр: Jazz
Продолжительность: 00:40:38-Кодек: MP3
Битрейт: 320 кб/с
Тип битрейта: CBR-Назарук Игорь Николаевич
р. 19.11.1949, Москва
Пианист. Один из признанных виртуозов, показавших в последних десятилетиях ХХ века яркие авторские программы (соло, с малыми ансамблями и с оркестром).-Трек лист:
1. Родился на горе свет 18:49
2. Гимн Полуночной звезде 8:30
3. Пляши, коляда! 13:19

MI&#58;

Код:
Общее
Полное имя                               : C:\мой любимый Jazz\Игорь Назарук - Коляда. Карпатское новогодье - 1983\01. И.Назарук - I часть-Родился на горе свет.mp3
Формат                                   : MPEG Audio
Размер файла                             : 43,1 Мбайт
Продолжительность                        : 18 м.
Режим общего битрейта                    : Постоянный
Общий поток                              : 320 Кбит/сек
Аудио
Формат                                   : MPEG Audio
Версия формата                           : Version 1
Профиль формата                          : Layer 3
Режим                                    : Joint stereo
Продолжительность                        : 18 м.
Вид битрейта                             : Постоянный
Битрейт                                  : 320 Кбит/сек
Каналы                                   : 2 канала
Частота                                  : 44,1 КГц
Метод сжатия                             : С потерями
Размер потока                            : 43,1 Мбайт (100%)
Общее
Полное имя                               : C:\мой любимый Jazz\Игорь Назарук - Коляда. Карпатское новогодье - 1983\02. И.Назарук - II часть-Гимн полуночной звезде.mp3
Формат                                   : MPEG Audio
Размер файла                             : 19,5 Мбайт
Продолжительность                        : 8 м. 30 с.
Режим общего битрейта                    : Постоянный
Общий поток                              : 320 Кбит/сек
Аудио
Формат                                   : MPEG Audio
Версия формата                           : Version 1
Профиль формата                          : Layer 3
Режим                                    : Joint stereo
Продолжительность                        : 8 м. 30 с.
Вид битрейта                             : Постоянный
Битрейт                                  : 320 Кбит/сек
Каналы                                   : 2 канала
Частота                                  : 44,1 КГц
Метод сжатия                             : С потерями
Размер потока                            : 19,5 Мбайт (100%)
Общее
Полное имя                               : C:\мой любимый Jazz\Игорь Назарук - Коляда. Карпатское новогодье - 1983\03. И.Назарук - III часть-Пляши, коляда!.mp3
Формат                                   : MPEG Audio
Размер файла                             : 30,5 Мбайт
Продолжительность                        : 13 м.
Режим общего битрейта                    : Постоянный
Общий поток                              : 320 Кбит/сек
Аудио
Формат                                   : MPEG Audio
Версия формата                           : Version 1
Профиль формата                          : Layer 3
Режим                                    : Joint stereo
Продолжительность                        : 13 м.
Вид битрейта                             : Постоянный
Битрейт                                  : 320 Кбит/сек
Каналы                                   : 2 канала
Частота                                  : 44,1 КГц
Метод сжатия                             : С потерями
Размер потока                            : 30,5 Мбайт (100%)
Общее
Полное имя                               : C:\мой любимый Jazz\Игорь Назарук - Коляда. Карпатское новогодье - 1983\Back01.jpg
Формат                                   : JPEG
Размер файла                             : 482 Кбайт
Изображения
Формат                                   : JPEG
Ширина                                   : 1200 пикселей
Высота                                   : 1200 пикселей
Цветовое пространство                    : YUV
Субдискретизация насыщенности            : 4:2:2
Битовая глубина                          : 8 бит
Метод сжатия                             : С потерями
Размер потока                            : 482 Кбайт (100%)
Общее
Полное имя                               : C:\мой любимый Jazz\Игорь Назарук - Коляда. Карпатское новогодье - 1983\Cover01.jpg
Формат                                   : JPEG
Размер файла                             : 368 Кбайт
Изображения
Формат                                   : JPEG
Ширина                                   : 1200 пикселей
Высота                                   : 1200 пикселей
Цветовое пространство                    : YUV
Субдискретизация насыщенности            : 4:2:2
Битовая глубина                          : 8 бит
Метод сжатия                             : С потерями
Размер потока                            : 368 Кбайт (100%)
Общее
Полное имя                               : C:\мой любимый Jazz\Игорь Назарук - Коляда. Карпатское новогодье - 1983\Cover01small.jpg
Формат                                   : JPEG
Размер файла                             : 49,0 Кбайт
Изображения
Формат                                   : JPEG
Ширина                                   : 400 пикселей
Высота                                   : 400 пикселей
Цветовое пространство                    : YUV
Субдискретизация насыщенности            : 4:2:2
Битовая глубина                          : 8 бит
Метод сжатия                             : С потерями
Размер потока                            : 49,0 Кбайт (100%)
Общее
Полное имя                               : C:\мой любимый Jazz\Игорь Назарук - Коляда. Карпатское новогодье - 1983\Side01.jpg
Формат                                   : JPEG
Размер файла                             : 284 Кбайт
Изображения
Формат                                   : JPEG
Ширина                                   : 1200 пикселей
Высота                                   : 1200 пикселей
Цветовое пространство                    : YUV
Субдискретизация насыщенности            : 4:2:2
Битовая глубина                          : 8 бит
Метод сжатия                             : С потерями
Размер потока                            : 284 Кбайт (100%)
Общее
Полное имя                               : C:\мой любимый Jazz\Игорь Назарук - Коляда. Карпатское новогодье - 1983\Side02.jpg
Формат                                   : JPEG
Размер файла                             : 287 Кбайт
Изображения
Формат                                   : JPEG
Ширина                                   : 1200 пикселей
Высота                                   : 1200 пикселей
Цветовое пространство                    : YUV
Субдискретизация насыщенности            : 4:2:2
Битовая глубина                          : 8 бит
Метод сжатия                             : С потерями
Размер потока                            : 287 Кбайт (100%)
Общее
Полное имя                               : C:\мой любимый Jazz\Игорь Назарук - Коляда. Карпатское новогодье - 1983\Thumbs.db
Размер файла                             : 28,5 Кбайт
Общее
Полное имя                               : C:\мой любимый Jazz\Игорь Назарук - Коляда. Карпатское новогодье - 1983\Новый текстовый документ.txt
Размер файла                             : 765 байт

Об альбоме

Состав:
Игорь Назарук - фоно, электро пиано, орган, синтезатор "Синти-100"
Алексей Зубов - тенор и сопрано саксофон
Алексей Исплатовский - контрабас, акустическая и электро бас-гитара
Алексей Чернышев - ударные
Марк Пекарский - перкуссия
Аркадий Укупник - электро бас-гитара
Монументальная композиция, основанная на фольклорных мелодиях Закарпатья. Очень хорошая работа, незаслуженно подзабытая.
Для записи Игорь Назарук одолжил знаменитую машину "Синти-100" у Эдуарда Артемьева. Ему помогали его неизменные товарищи Чернышев и Исплатовский - самая слаженная ритм-секция советского джаза. Ветеран Зубов не уступает по экспрессии и богатству красок Чекасину и Вапирову. Кроме этого особый колорит вкраплениями перкуссии добавил Марк Пекарский. Сыграл на пластинке и будущий "Укупнег" - Аркадий Укупник, тогда участник ансамбля "Джазовая Атака" Стаса Намина.

Об исполнителе продолжение

В 1972 году окончил Московскую консерваторию по классу фортепиано у С. Г. Нейгауза. С 1970 года работает в оркестре кинематографии. В 1974 году вошел в квартет солистов оркестра (Назарук, Алексей Кузнецов, Алексей Исплатовский, барабанщик Андрей Чернышев), принимал участие в отечественных и зарубежных фестивалях. К сожалению, в дальнейшем в основном выступал только в Москве (исключение — фестивали в Днепропетровске, 1982, и Баку, 1983), поскольку постоянно работал в оркестре кинематографии. Лучшие сочинения — "Коляда", "Сын старого мастера", "И пробудился лес", "Детский альбом".
Время раздачи: до первых 10-ти сидов
Other forum [Profile] [PM]
Similar theme
Forum Topic Author Torrent Replies Last Post
./templates/default/images/folder_dl.gif Разное Игорь Резько | Самая нужная книга для настоящих мужчин [2013] [PDF] UndegraundMen
1 | 0

0 | 1748

6

2013-07-23 23:02
UndegraundMen Latest
Display posts from previous:    
Reply to topic

The time now is: Today 22:17

All times are GMT + 3 Hours



You cannot post new topics in this forum
You cannot reply to topics in this forum
You cannot edit your posts in this forum
You cannot delete your posts in this forum
You cannot vote in polls in this forum
You cannot attach files in this forum
You cannot download files in this forum