Today is a free download without charge Download

Отклонение / Под откос / Swerve (Крэйг Лахифф / Craig Lahiff) [2011, Австралия, триллер, BDRip 720p] VO (xixidok) + Original (Eng)

Reply to topic
 
Author
Message

Omen ®

Longevity: 8 years 5 months

Posts: 181087

Торрент-статистика

Post 27-Mar-2013 04:10

[Quote]

Отклонение / Под откос / Swerve Страна: Австралия
Студия: Duo Art Productions
Жанр: триллер
Год выпуска: 2011
Продолжительность: 01:26:25
Перевод: Одноголосый закадровый xixidok
Cубтитры: нет
Оригинальная аудиодорожка: английский
Режиссер: Крэйг Лахифф / Craig Lahiff
В ролях: Джейсон Кларк, Эмма Бут, Дэвид Лайонс, Трэвис МакМахон, Винс Колосимо, Рой Биллинг, Энди Андерсон, Крис Асимос, Чан Гриффин, Брендан Герин
Описание:
Колин становится свидетелем ДТП, обнаружив на месте происшествия мертвого мужчину, красивую женщину, и чемодан, полный денег. Пытаясь поступить по закону совести, он сразу же оказывается втянутым в чужую и опасную игру.
- || -Тип релиза: BDRip 720p (рип от WiKi)
Контейнер: MKV
Видео: AVC (x264), 1280x544 (2,35:1) at 24,000 fps, 5716 Кbps, 0.342 bpp
Аудио 1: DTS; 1536 Kbps; CBR; 6 ch; 48 khz; 24 bit | VO - xixidok |
Аудио 2: DTS; 1536 Kbps; CBR; 6 ch; 48 khz; 24 bit | Английский |

Скриншоты || x264 Info || MediaInfo || Notes

Notes:

Цитата:
  • Поименованные главы взяты с Swerve.falscher.Ort.falsche.Zeit.2011.ML.DVD9.UNTOUCHED
  • Английские субтитры которые бродят по просторам интернета, откровенный гугл-транслейт.... в раздачу не добавлены, ровно так же как и русские субтитры которые сделаны на их основе

MediaInfo

Код:
Общее
Уникальный идентификатор                 : 226800669745505142534329721253293608130 (0xAAA0385A3E23E006827700C749CE4CC2)
Полное имя                               : Отклонение.2011.L1.720p.BluRay.x264-WiKi.mkv
Формат                                   : Matroska
Версия формата                           : Version 4 / Version 2
Размер файла                             : 5,26 Гбайт
Продолжительность                        : 1 ч. 26 м.
Общий поток                              : 8716 Кбит/сек
Название фильма                          : profile.php?mode=viewprofile&u=22488948
Дата кодирования                         : UTC 2013-03-24 14:33:52
Программа кодирования                    : mkvmerge v6.1.0 ('Old Devil') built on Mar  2 2013 14:32:37
Библиотека кодирования                   : libebml v1.3.0 + libmatroska v1.4.0
Видео
Идентификатор                            : 1
Формат                                   : AVC
Формат/Информация                        : Advanced Video Codec
Профиль формата                          : [email protected]
Параметр CABAC формата                   : Да
Параметр ReFrames формата                : 8 кадров
Идентификатор кодека                     : V_MPEG4/ISO/AVC
Продолжительность                        : 1 ч. 26 м.
Битрейт                                  : 5716 Кбит/сек
Ширина                                   : 1280 пикселей
Высота                                   : 544 пикселя
Соотношение сторон                       : 2,35:1
Режим частоты кадров                     : Постоянный
Частота кадров                           : 24,000 кадра/сек
Цветовое пространство                    : YUV
Субдискретизация насыщенности            : 4:2:0
Битовая глубина                          : 8 бит
Тип развёртки                            : Прогрессивная
Бит/(Пиксели*Кадры)                      : 0.342
Размер потока                            : 3,33 Гбайт (63%)
Библиотека кодирования                   : x264 core 125 r2200 999b753
Настройки программы                      : cabac=1 / ref=8 / deblock=1:-3:-3 / analyse=0x3:0x113 / me=umh / subme=10 / psy=1 / psy_rd=1.10:0.00 / mixed_ref=1 / me_range=64 / chroma_me=1 / trellis=2 / 8x8dct=1 / cqm=0 / deadzone=21,11 / fast_pskip=0 / chroma_qp_offset=-4 / threads=12 / lookahead_threads=2 / sliced_threads=0 / nr=0 / decimate=0 / interlaced=0 / bluray_compat=0 / constrained_intra=0 / bframes=8 / b_pyramid=2 / b_adapt=2 / b_bias=0 / direct=3 / weightb=1 / open_gop=0 / weightp=2 / keyint=250 / keyint_min=23 / scenecut=40 / intra_refresh=0 / rc_lookahead=48 / rc=2pass / mbtree=1 / bitrate=5716 / ratetol=1.0 / qcomp=0.60 / qpmin=0 / qpmax=69 / qpstep=4 / cplxblur=20.0 / qblur=0.5 / ip_ratio=1.40 / aq=1:0.80
Язык                                     : English
Default                                  : Да
Forced                                   : Нет
Аудио #1
Идентификатор                            : 2
Формат                                   : DTS
Формат/Информация                        : Digital Theater Systems
Режим                                    : 16
Параметр Endianness формата              : Big
Идентификатор кодека                     : A_DTS
Продолжительность                        : 1 ч. 26 м.
Вид битрейта                             : Постоянный
Битрейт                                  : 1510 Кбит/сек
Каналы                                   : 6 каналов
Расположение каналов                     : Front: L C R, Side: L R, LFE
Частота                                  : 48,0 КГц
Битовая глубина                          : 24 бит
Метод сжатия                             : С потерями
Размер потока                            : 933 Мбайт (17%)
Заголовок                                : VO [xixidok]
Язык                                     : Russian
Default                                  : Да
Forced                                   : Нет
Аудио #2
Идентификатор                            : 3
Формат                                   : DTS
Формат/Информация                        : Digital Theater Systems
Режим                                    : 16
Параметр Endianness формата              : Big
Идентификатор кодека                     : A_DTS
Продолжительность                        : 1 ч. 26 м.
Вид битрейта                             : Постоянный
Битрейт                                  : 1510 Кбит/сек
Каналы                                   : 6 каналов
Расположение каналов                     : Front: L C R, Side: L R, LFE
Частота                                  : 48,0 КГц
Битовая глубина                          : 24 бит
Метод сжатия                             : С потерями
Размер потока                            : 933 Мбайт (17%)
Язык                                     : English
Default                                  : Нет
Forced                                   : Нет
Меню
00:00:00.000                             : en:1:  ACCIDENT
00:07:42.875                             : en:2:  IN THE POLICE
00:14:08.917                             : en:3:  DINNER
00:22:12.250                             : en:4:  SUSPICIOUS
00:29:45.208                             : en:5:  MISSING MONEY
00:37:27.000                             : en:6:  MISUNDERSTANDING
00:46:42.167                             : en:7:  CLEANING SERVICES
00:54:13.625                             : en:8:  SURVIVE!
01:01:17.500                             : en:9:  MANHUNT
01:08:33.542                             : en:10:  TROUBLESHOOTING
01:14:54.125                             : en:11:  SECOND CHANCE
01:22:03.292                             : en:12:  CREDITS

x264 Info

x264 [info]: frame I:863 Avg QP:15.48 size:153333
x264 [info]: frame P:25741 Avg QP:18.59 size: 55576
x264 [info]: frame B:97404 Avg QP:21.12 size: 21841
Other forum [Profile] [PM]
Display posts from previous:    
Reply to topic

The time now is: Today 19:55

All times are GMT + 3 Hours



You cannot post new topics in this forum
You cannot reply to topics in this forum
You cannot edit your posts in this forum
You cannot delete your posts in this forum
You cannot vote in polls in this forum
You cannot attach files in this forum
You cannot download files in this forum