Today is a free download without charge Download

Девушка с жемчужной сережкой / Girl with a Pearl Earring (Питер Веббер / Peter Webber) [2003, Великобритания, Люксембург, драма, мелодрама, биография, BDRip 1080p] MVO + Sub Rus, Eng + Original Eng

Reply to topic
 
Author
Message

Omen ®

Longevity: 8 years 5 months

Posts: 181087

Торрент-статистика

Post 27-Mar-2013 04:10

[Quote]

Девушка с жемчужной сережкой / Girl with a Pearl Earring
Страна: Великобритания, Люксембург
Жанр: драма, мелодрама, биография
Год выпуска: 2003
Продолжительность: 01:39:59
Перевод: Профессиональный (многоголосый закадровый)
Cубтитры: русские, английские
Оригинальная аудиодорожка: английская
Режиссер: Питер Веббер / Peter Webber
В ролях: Скарлетт Йоханссон, Колин Фёрт, Эсси Дэвис, Том Уилкинсон, Джуди Парфитт, Киллиан Мёрфи, Джоэнна Скэнлэн, Алакина Манн, Крис Макхаллем, Гэбриэлль Рейди
Описание: 1665 год, голландский город Дельфт. В дом художника Йоханнеса Вермеера приходит 16-летняя девушка Гриет, чтобы работать служанкой. Вскоре она обращает на себя внимание живописца, потому что, несмотря на свой юный возраст, Гриет тонко чувствует не только результат творчества, но и сам процесс, механизм создания полотен, которым суждено будет жить в веках. Однажды Вермеер обращается с просьбой к Гриет — позировать ему для новой картины…

Сэмпл: http://yadi.sk/d/sArfs2Y83ZlpL
Тип релиза: BDRip 1080p
Контейнер: MKV
Видео: х264 ~13800 kbps / 1920х808 / 23.976 fps / 2,40:1 / High Profile 4.1
Аудио: Russian: DD 5.1 48 kHz 448 kbps
Аудио 2: English: DTS 5.1 48 kHz 1509 kbps
Формат субтитров: softsub (SRT)

MediaInfo

General
Unique ID : 195427959784052760306317157075945487629 (0x93060E542C0138668B6BA90816437D0D)
Complete name : C:\Фильмы\Girl with a Pearl Earring.2003.BDRip.1080p.mkv
Format : Matroska
Format version : Version 2
File size : 11.0 GiB
Duration : 1h 39mn
Overall bit rate : 15.8 Mbps
Movie name : Девушка с жемчужной сережкой / Girl with a Pearl Earring.2003 Release for HDtracker& MeGUI
Encoded date : UTC 2013-03-11 06:23:12
Writing application : mkvmerge v3.4.0 ('Rapunzel') сборка от May 15 2010 09:38:20
Writing library : libebml v0.8.0 + libmatroska v0.9.0
Video #1
ID : 1
Format : AVC
Format/Info : Advanced Video Codec
Format profile : [email protected]
Format settings, CABAC : Yes
Format settings, ReFrames : 4 frames
Codec ID : V_MPEG4/ISO/AVC
Duration : 1h 39mn
Bit rate : 13.8 Mbps
Width : 1 920 pixels
Height : 808 pixels
Display aspect ratio : 2.40:1
Frame rate mode : Constant
Frame rate : 23.976 fps
Color space : YUV
Chroma subsampling : 4:2:0
Bit depth : 8 bits
Scan type : Progressive
Bits/(Pixel*Frame) : 0.371
Stream size : 9.41 GiB (86%)
Writing library : x264 core 130 r2273 b3065e6
Encoding settings : cabac=1 / ref=4 / deblock=1:-3:-3 / analyse=0x3:0x133 / me=umh / subme=11 / psy=1 / psy_rd=1.05:0.15 / mixed_ref=1 / me_range=48 / chroma_me=1 / trellis=2 / 8x8dct=1 / cqm=0 / deadzone=21,11 / fast_pskip=0 / chroma_qp_offset=-3 / threads=12 / lookahead_threads=2 / sliced_threads=0 / nr=0 / decimate=1 / interlaced=0 / bluray_compat=0 / constrained_intra=0 / bframes=9 / b_pyramid=2 / b_adapt=2 / b_bias=0 / direct=3 / weightb=1 / open_gop=0 / weightp=2 / keyint=240 / keyint_min=22 / scenecut=40 / intra_refresh=0 / rc_lookahead=60 / rc=2pass / mbtree=1 / bitrate=13800 / ratetol=1.0 / qcomp=0.70 / qpmin=0 / qpmax=69 / qpstep=4 / cplxblur=20.0 / qblur=0.5 / vbv_maxrate=50000 / vbv_bufsize=62500 / nal_hrd=none / ip_ratio=1.40 / aq=2:1.00
Language : English
Default : No
Forced : No
Audio #2
ID : 2
Format : AC-3
Format/Info : Audio Coding 3
Mode extension : CM (complete main)
Format settings, Endianness : Big
Codec ID : A_AC3
Duration : 1h 39mn
Bit rate mode : Constant
Bit rate : 448 Kbps
Channel(s) : 6 channels
Channel positions : Front: L C R, Side: L R, LFE
Sampling rate : 48.0 KHz
Bit depth : 16 bits
Compression mode : Lossy
Stream size : 320 MiB (3%)
Title : AC3 5.1 MVO
Language : Russian
Default : Yes
Forced : No
Audio #3
ID : 3
Format : DTS
Format/Info : Digital Theater Systems
Mode : 16
Format settings, Endianness : Big
Codec ID : A_DTS
Duration : 1h 39mn
Bit rate mode : Constant
Bit rate : 1 509 Kbps
Channel(s) : 6 channels
Channel positions : Front: L C R, Side: L R, LFE
Sampling rate : 48.0 KHz
Bit depth : 24 bits
Compression mode : Lossy
Stream size : 1.05 GiB (10%)
Title : DTS 5.1 Original
Language : English
Default : No
Forced : No
Text #4
ID : 4
Format : UTF-8
Codec ID : S_TEXT/UTF8
Codec ID/Info : UTF-8 Plain Text
Title : Full
Language : Russian
Default : No
Forced : No
Text #5
ID : 5
Format : UTF-8
Codec ID : S_TEXT/UTF8
Codec ID/Info : UTF-8 Plain Text
Title : Full
Language : English
Default : No
Forced : No
Menu
00:00:00.000 : en:00:00:00.000
00:07:27.029 : en:00:07:27.029
00:12:21.991 : en:00:12:21.991
00:17:19.663 : en:00:17:19.663
00:25:03.210 : en:00:25:03.210
00:34:27.648 : en:00:34:27.648
00:41:06.130 : en:00:41:06.130
00:49:21.124 : en:00:49:21.124
00:56:49.447 : en:00:56:49.447
01:12:34.558 : en:01:12:34.558
01:21:48.778 : en:01:21:48.778
01:28:52.118 : en:01:28:52.118
01:33:17.425 : en:01:33:17.425

Скриншоты

Other forum [Profile] [PM]
Display posts from previous:    
Reply to topic

The time now is: Today 02:43

All times are GMT + 3 Hours



You cannot post new topics in this forum
You cannot reply to topics in this forum
You cannot edit your posts in this forum
You cannot delete your posts in this forum
You cannot vote in polls in this forum
You cannot attach files in this forum
You cannot download files in this forum