Today is a free download without charge Download

Один на всех / Серии: 1-2 из 4 (Алексей Праздников) [2012, Драма, HDTVRip 720p]

Reply to topic
 
Author
Message

Omen ®

Longevity: 9 years 1 month

Posts: 181086

Торрент-статистика

Post 27-Mar-2013 00:02

[Quote]

Один на всех
Год выпуска: 2012
Производство: Студия "Проект"
Жанр: Драма
Продолжительность: ~02:59:40
Режиссёр: Алексей Праздников
В ролях: Александр Дьяченко, Карина Разумовская, Зоя Буряк, Оксана Базилевич, Сергей Лосев и другие.
Описание: Подполковник в отставке Евгений Геннадьевич Александров разводится с женой и оставляет ей все нажитое имущество. В сорок лет Евгений Геннадьевич оказывается без крыши над головой, без семьи, без работы. Он возвращается в город своего детства - в пустующую после смерти его матери квартиру в старом доме. Приехав, Александров обнаруживает, что в доме, где прошло его детство, остались только женщины: старушки, пожилые женщины с дочками, молодые одинокие мамы с детьми. Александров чувствует, что нужен им. Ведь каждая из них видит в нем того мужчину, которого ей отчаянно не хватает — мужа, отца, сына, друга.

Качество: HDTVRip 720p
Формат: MKV
Видео кодек: H.264
Аудио кодек: AAC
Видео: x264, 1280 х 720 (16:9), 25,000 кадр/сек, ~ 2891 Кбит/сек
Аудио: MPEG Audio 48000Hz stereo 192 Кбит/сек
Сторонней рекламы нет!

MediaInfo

ОбщееУникальный идентификатор : 252568096362102113092076715043677195208 (0xBE02D89204BBBF20A45EAF6AA1DECBC8)Полное имя : G:\ФИЛЬМЫ\Один на всех 01_02_серия_HDTVRip_720p_by_Серый1779.mkvФормат : MatroskaВерсия формата : Version 2Размер файла : 1,92 ГбайтПродолжительность : 1 ч. 29 м.Общий поток : 3085 Кбит/секДата кодирования : UTC 2013-03-26 05:15:36Программа кодирования : mkvmerge v4.9.1 ('Ich will') built on Sep 21 2011 17:48:11Библиотека кодирования : libebml v1.2.1 + libmatroska v1.2.0
ВидеоИдентификатор : 1Формат : AVCФормат/Информация : Advanced Video CodecПрофиль формата : [email protected]Параметр CABAC формата : ДаПараметр ReFrames формата : 10 кадровИдентификатор кодека : V_MPEG4/ISO/AVCПродолжительность : 1 ч. 29 м.Битрейт : 2832 Кбит/секШирина : 1280 пикселейВысота : 720 пикселейСоотношение сторон : 16:9Режим частоты кадров : ПостоянныйЧастота кадров : 25,000 кадров/секЦветовое пространство : YUVСубдискретизация насыщенности : 4:2:0Битовая глубина : 8 битТип развёртки : ПрогрессивнаяБит/(Пиксели*Кадры) : 0.123Размер потока : 1,76 Гбайт (92%)Библиотека кодирования : x264 core 118 r2085 8a62835Настройки программы : cabac=1 / ref=10 / deblock=1:-2:-2 / analyse=0x3:0x133 / me=umh / subme=9 / psy=1 / psy_rd=1.00:0.15 / mixed_ref=1 / me_range=32 / chroma_me=1 / trellis=2 / 8x8dct=1 / cqm=0 / deadzone=21,11 / fast_pskip=0 / chroma_qp_offset=-3 / threads=3 / sliced_threads=0 / nr=0 / decimate=1 / interlaced=0 / bluray_compat=0 / constrained_intra=0 / bframes=9 / b_pyramid=2 / b_adapt=2 / b_bias=0 / direct=1 / weightb=1 / open_gop=0 / weightp=2 / keyint=250 / keyint_min=25 / scenecut=40 / intra_refresh=0 / rc=crf / mbtree=0 / crf=20.0 / qcomp=0.60 / qpmin=0 / qpmax=69 / qpstep=4 / ip_ratio=1.40 / pb_ratio=1.30 / aq=2:0.70Default : ДаForced : НетОсновные цвета : BT.601 PALХарактеристики трансфера : BT.470 System B, BT.470 System GКоэффициенты матрицы : BT.601
АудиоИдентификатор : 2Формат : MPEG AudioВерсия формата : Version 1Профиль формата : Layer 2Идентификатор кодека : A_MPEG/L2Идентификатор кодека/Подсказка : MP2Продолжительность : 1 ч. 29 м.Вид битрейта : ПостоянныйБитрейт : 192 Кбит/секКаналы : 2 каналаЧастота : 48,0 КГцМетод сжатия : С потерямиРазмер потока : 123 Мбайт (6%)Default : ДаForced : Нет

h264 log

x264 [info]: frame I:1084 Avg QP:18.76 size:100170x264 [info]: frame P:28325 Avg QP:20.28 size: 32716x264 [info]: frame B:104413 Avg QP:22.70 size: 8615x264 [info]: consecutive B-frames: 1.5% 1.4% 10.5% 16.1% 18.7% 48.8% 2.5% 0.3% 0.2% 0.0%x264 [info]: mb I I16..4: 6.5% 79.7% 13.7%x264 [info]: mb P I16..4: 1.1% 6.8% 1.0% P16..4: 62.3% 18.8% 4.5% 0.7% 0.2% skip: 4.6%x264 [info]: mb B I16..4: 0.1% 0.4% 0.1% B16..8: 39.9% 5.9% 1.6% direct: 4.6% skip:47.5% L0:36.5% L1:51.7% BI:11.8%x264 [info]: 8x8 transform intra:76.7% inter:63.2%x264 [info]: coded y,uvDC,uvAC intra: 83.2% 82.4% 51.6% inter: 19.0% 20.5% 1.6%x264 [info]: i16 v,h,dc,p: 31% 15% 9% 45%x264 [info]: i8 v,h,dc,ddl,ddr,vr,hd,vl,hu: 15% 9% 5% 8% 12% 14% 12% 12% 13%x264 [info]: i4 v,h,dc,ddl,ddr,vr,hd,vl,hu: 16% 10% 3% 8% 14% 15% 13% 11% 12%x264 [info]: i8c dc,h,v,p: 38% 23% 23% 16%x264 [info]: Weighted P-Frames: Y:1.8% UV:0.6%x264 [info]: ref P L0: 46.4% 13.5% 21.3% 4.3% 4.6% 2.6% 2.9% 1.3% 1.5% 1.3% 0.2% 0.0%x264 [info]: ref B L0: 88.8% 7.2% 1.8% 0.8% 0.5% 0.4% 0.3% 0.2% 0.1%x264 [info]: ref B L1: 95.7% 4.3%x264 [info]: kb/s:2891.53
x264 [total]: encoded 133822 frames, 2.33 fps, 2891.53 kb/s
Отдельное спасибо mydimka за предоставление исходника.

Внимание ! Раздача ведётся путём добавления новых серий

Внимание! Раздача ведётся путём добавления новых серий; при каждом добавлении создётся новый торрент. Чтобы начать докачку новой серии, пользователям необходимо сделать следующее:
(1) остановить скачивание,
(2) удалить старый торрент у себя из клиента (старые серии удалять не надо),
(3) скачать новый торрент и запустить его у себя в клиенте вместо старого, при этом указать клиенту путь в старую папку куда и должно происходить скачивание новых серий.
Ваш клиент при этом должен произвести хеширование (проверку) старой папки (если не производит сам - помогите ему сделать это), и будет докачивать только те серии которых у вас ещё нет. Старые серии при этом не удаляются, а продолжают раздаваться!
Eсли вы уже удалили старые серии, то предотвратить повторную закачку старых серий можно, отжав галочку в соответсвующих местах при запуске нового торрента. По возможности, желательно не удалять старые серии как можно дольше чтобы релизёр не столько продолжал раздавать старые серии, а смог сконцентрироваться на новых.
ВНИМАНИЕ! ТОРРЕНТ ПЕРЕЗАЛИТ! ДОБАВЛЕНА 2-ая СЕРИИ!

Скриншоты

Other forum [Profile] [PM]
Display posts from previous:    
Reply to topic

The time now is: Today 06:23

All times are GMT + 3 Hours



You cannot post new topics in this forum
You cannot reply to topics in this forum
You cannot edit your posts in this forum
You cannot delete your posts in this forum
You cannot vote in polls in this forum
You cannot attach files in this forum
You cannot download files in this forum