Today is a free download without charge Download

Кухня (Сезон 2, Серии 01-02 из 20) (2013) SATRip [Обновляемая]

Reply to topic
 
Author
Message

UndegraundMen ®

Longevity: 8 years 9 months

Posts: 25145

Торрент-статистика

Post 26-Mar-2013 12:53

[Quote]

Кухня (Сезон 2, Серии 01-02 из 20) (2013) SATRip- Русское название: Кухня
Год выпуска: 2013
Жанр: Комедия, Семейный

Режиссер: Дмитрий Дьяченко
Актеры: Никита Тарасов, Дмитрий Назаров, Марк Богатырев, Дмитрий Нагиев, Юлия Такшина, Елена Подкаминская, Марина Могилевская, Сергей Лавыгин, Виктор Хориняк, Сергей Епишев, Ольга Кузьмина, Екатерина Кузнецова (IV), Михаил Тарабукин, Виктория Лукина, Елена Чернявская, Виталий Щанников, Сергей Беляев, Роман Индык, Евгения Храповицкая, Серафима Низовская
Описание фильма:
«Во все времена еда была рядом с людьми. Она искушает, вдохновляет, восхищает, отвращает. Но человек не может без еды, а значит тот, кто создает еду, может управлять миром…». Так думал Максим Лавров, когда шел осуществлять свою мечту — устраиваться поваром в один из самых дорогих ресторанов столицы.
Мечта сбылась, вот только на деле все вышло не так вкусно. Шеф-повар ресторана Виктор Баринов — настоящая звезда гастрономического бомонда, знающая как угодить взыскательной публике. Оборотная сторона этого идеального образа — злоупотребление алкоголем, страсть к азартным играм и невыносимый характер. В гневе Баринов страшен, в загуле — неукротим.
Арт-директор Виктория Гончарова — настоящая снежная королева, карьеристка с ледяным сердцем, однако именно с ней Макс проводит ночь до того, как пойти на новую работу. А вся команда поваров только и ждет промашки новичка, чтобы от души посмеяться.
Продолжительность: 2 x ~00:25:00
Качество видео: SATRip
Видеокодек: Xvid
Битрейт видео: ~1510 kb/s
Размер кадра: 720x400
Аудиокодек: MP3 2.0
Битрейт аудио: 128 kb/s

MediaInfo

Полное имя : I:\Кухня.(2 сезон)\Kuhnja.2.01.2013.SATRip.avi
Формат : AVI
Формат/Информация : Audio Video Interleave
Размер файла : 276 Мбайт
Продолжительность : 23 м.
Общий поток : 1648 Кбит/сек
Программа кодирования : VirtualDubMod 1.5.10.3 || (build 2550/release)
Библиотека кодирования : VirtualDubMod build 2550/release
Видео
Идентификатор : 0
Формат : MPEG-4 Visual
Профиль формата : Advanced [email protected]
Параметр BVOP формата : 2
Параметр QPel формата : Нет
Параметр GMC формата : Без точки перехода
Параметр матрицы формата : Default (MPEG)
Идентификатор кодека : XVID
Идентификатор кодека/Подсказка : XviD
Продолжительность : 23 м.
Битрейт : 1510 Кбит/сек
Ширина : 720 пикс.
Высота : 400 пикс.
Соотношение сторон : 16:9
Частота кадров : 25,000 кадр/сек
Цветовое пространство : YUV
Подвыборка цветности : 4:2:0
Битовая глубина : 8 бит
Тип развёртки : Прогрессивная
Метод сжатия : С потерями
Бит/(Пиксели*Кадры) : 0.210
Размер потока : 253 Мбайт (92%)
Библиотека кодирования : XviD 65
Аудио
Идентификатор : 1
Формат : MPEG Audio
Версия формата : Version 1
Профиль формата : Layer 3
Режим : Joint stereo
Расширение режима : MS Stereo
Идентификатор кодека : 55
Идентификатор кодека/Подсказка : MP3
Продолжительность : 23 м.
Вид битрейта : Постоянный
Битрейт : 128 Кбит/сек
Канал(ы) : 2 канала(ов)
Частота : 48,0 КГц
Метод сжатия : С потерями
Размер потока : 21,4 Мбайт (8%)
Выравнивание : Соединение по промежуткам
Продолжительность промежутка : 40 мс. (1,00 видеокадр)
Время предзагрузки промежутка : 504 ms
Все релизы сериалаСкриншоты:
       
Время раздачи: 24/7 (до 10 скачавших)
Other forum [Profile] [PM]

shturmovik83

Gender:

Longevity: 11 years

Posts: 176

Торрент-статистика

Post 28-Mar-2013 18:35 (after 2 days 5 hours)

[Quote]

пора обновлять 3 и 4 уже в сети!!!

_________________
Other forum [Profile] [PM]
Display posts from previous:    
Reply to topic

The time now is: Today 05:19

All times are GMT + 3 Hours



You cannot post new topics in this forum
You cannot reply to topics in this forum
You cannot edit your posts in this forum
You cannot delete your posts in this forum
You cannot vote in polls in this forum
You cannot attach files in this forum
You cannot download files in this forum