Today is a free download without charge Download

Discovery: Не пытайтесь повторить! Выпуск № 5 / Discovery: You Have Been Warned (2013) SATRip

Reply to topic
 
Author
Message

UndegraundMen ®

Longevity: 7 years 7 months

Posts: 25145

Торрент-статистика

Post 26-Mar-2013 12:53

[Quote]

Discovery: Не пытайтесь повторить! Выпуск № 5 / Discovery: You Have Been Warned (2013) SATRip- Русское название: Discovery: Не пытайтесь повторить!
Оригинальное название: Discovery: You Have Been Warned
Режиссер / Телекомпания: Discovery Channel
Год выпуска: 2013
Жанр: Документальный
Описание:
Программа «Не пытайтесь повторить» показывает 20 лучших роликов, выложенных на YouTube, на которых запечатлены научные эксперименты, поставленные в домашних условиях.
В каждой серии создатели программы демонстрируют умный, смешной или просто странный видеосюжет, а потом ведущие ученые разбирают его в деталях и объясняют суть.
Вместе с ними зрители совершат ряд открытий из области биологии, физики или химии, которые лежат в основе этих опытов. Вы увидите летательный аппарат, работающий на мускульной силе и созданный в Канаде, встретитесь с исследователями космоса из Великобритании, познакомитесь с девушками из США и Новой Зеландии, которые умеют говорить задом наперед, а также услышите рок-группу, где играют роботы!
Для этой программы было отобрано только самое лучшее - от экспериментов, которые люди ставят сами на себе, до головокружительных каскадерских трюков.
Прирожденные смельчаки - 5 серия
Сегодня вы увидите подводные проделки отрицающий закон тяготения. Невидимый осьминог снятый на камеру. А как удар животом об воду спас жизнь этого человека? Все это и многое другое в сегодняшнем выпуске.
Не пытайтесь повторить! на nnm-club
Продолжительность: 00:44:00
Перевод: Одноголосый закадровый, профессиональный
Видеокодек: Xvid
Битрейт видео: ~1701бит/сек
Размер кадра: 720x400
Качество видео: SATRip
Аудиокодек: MP3, 2 канала
Битрейт аудио: 128 Кбит/сек
Скриншоты:
       
       

MediaInfo

Общее
Полное имя : H:\ДОКУМЕНТАЛКИ\Не пытайтесь повторить (5 выпуск).avi
Формат : AVI
Формат/Информация : Audio Video Interleave
Размер файла : 579 Мбайт
Продолжительность : 43 м.
Общий поток : 1839 Кбит/сек
Программа кодирования : VirtualDubModRus 1.5.10.2 (build 2540/release)
Библиотека кодирования : VirtualDubMod build 2540/release
Видео
Идентификатор : 0
Формат : MPEG-4 Visual
Профиль формата : Advanced [email protected]
Параметр BVOP формата : 2
Параметр QPel формата : Нет
Параметр GMC формата : Без точки перехода
Параметр матрицы формата : Default (H.263)
Идентификатор кодека : XVID
Идентификатор кодека/Подсказка : XviD
Продолжительность : 43 м.
Битрейт : 1701 Кбит/сек
Ширина : 720 пикселей
Высота : 400 пикселей
Соотношение сторон : 16:9
Частота кадров : 25,000 кадров/сек
Цветовое пространство : YUV
Субдискретизация насыщенности : 4:2:0
Битовая глубина : 8 бит
Тип развёртки : Прогрессивная
Метод сжатия : С потерями
Бит/(Пиксели*Кадры) : 0.236
Размер потока : 535 Мбайт (93%)
Библиотека кодирования : XviD 1.2.1 (UTC 2008-12-04)
Аудио
Идентификатор : 1
Формат : MPEG Audio
Версия формата : Version 1
Профиль формата : Layer 3
Идентификатор кодека : 55
Идентификатор кодека/Подсказка : MP3
Продолжительность : 43 м.
Вид битрейта : Постоянный
Битрейт : 128 Кбит/сек
Каналы : 2 канала
Частота : 48,0 КГц
Метод сжатия : С потерями
Размер потока : 40,3 Мбайт (7%)
Выравнивание : Соединение по промежуткам
Продолжительность промежутка : 40 мс. (1,00 видеокадр)
Время предзагрузки промежутка : 504 мс.
Библиотека кодирования : LAME3.99.5ЄЄЄЄЄЄЄЄЄЄ
Время раздачи: с 9:00 до 21:00 по МСК
Other forum [Profile] [PM]
Display posts from previous:    
Reply to topic

The time now is: Today 17:47

All times are GMT + 3 Hours



You cannot post new topics in this forum
You cannot reply to topics in this forum
You cannot edit your posts in this forum
You cannot delete your posts in this forum
You cannot vote in polls in this forum
You cannot attach files in this forum
You cannot download files in this forum