Today is a free download without charge Download

Пилоты из Таскиги / Пилоты Таскиги / The Tuskegee Airmen (Роберт Марковиц / Robert Markowitz) [1995, США, драма, военный, история, BDRip 1080p] AVO (Карцев) + VO + Original (Eng) + Sub (Rus, Eng)

Reply to topic
 
Author
Message

Omen ®

Longevity: 8 years 5 months

Posts: 181087

Торрент-статистика

Post 26-Mar-2013 11:43

[Quote]

Пилоты из ТаскигиThe Tuskegee Airmen«The right spirit. The right attitude. The wrong color.»- Страна: США
Жанр: драма, военный, история
Год выпуска: 1995
Продолжительность: 01:46:10-Перевод: Одноголосый закадровый
Перевод: Авторский (одноголосый закадровый) Петр Карцев
Оригинальная аудиодорожка: английский
Субтитры: русские, английские (SDH), английские
Режиссер: Роберт Марковиц / Robert Markowitz
В ролях: Лоренс Фишбёрн, Аллен Пэйн, Мальколм-Джамал Уорнер, Кортни Б. Вэнс, Андре Брогер, Кристофер МакДональд, Дэниэл Хью Келли, Джон Литгоу, Кьюба Гудинг мл., Мехи Файфер, Кристофер Бевинс, Эдди Браун-Описание: Фильм основан на реальных событиях. Третий год бушует Вторая мировая война. Театр военных действий простирается от Европы до Африки и Тихого океана. В США, на базе ВВС «Таскиги» обучаются цветные пилоты - лучшие из лучших представителей «низшей» рассы, каждый из которых, прежде чем стать курсантом, прошел долгий путь, полный унижений и презрения со стороны белых сограждан. Курсанты достойно проходят обучение, но командование не спешит отправлять их в действующую армию, не веря в возможности цветных пилотов.
Все меняется, когда летную школу посещяет первая леди страны - жена президента Рузвельта. Миссис Рузвельт совершает полет по кругу над аэродромом базы с одним из цветных пилотов и это коренным образом влияет на дальнейшую судьбу всех курсантов - их отправляют в действующую армию, сражаться с немцами в Африке. И хотя пилотам из Таскиги доверяют лишь задачи по уничтожению наземных целей, что для истребителей занятие, мягко говоря, не профильное, ребята выполняют свою работу прилежно.
Вскоре группу из Таскиги перебрасывают в Западную Европу, где бомбардировочная авиация США несет огромные потери от истребителей Люфтваффе. Здесь группа получает новенькие истребители P-51 «Мустанг» и уже в первом боевом вылете сбивает несколько немецких Мессершмитов Bf-109. Поначалу, отношение белых пилотов «Летающих крепостей» к группе из Таскиги оставляет желать лучшего, но с каждым новым боевым вылетом цветные пилоты завоевывают все большее уважение.
В конце концов при планировании рейда на столицу Третьего Рейха - Берлин, пилоты бомбардировщиков просят командование дать им в качестве группы сопровождения именно истребителей из Таскиги - на тот момент лучшую истребительную группу ВВС США в Северной Италии.-


MPAA: PG-13 - Детям до 13 лет просмотр не желателен-

Доп. Информация

Сценарий: Пэрис Куоллес / Paris Qualles, Трей Эллис / Trey Ellis, Рон Хатчинсон / Ron Hutchinson, Роберт Уильямс / Robert Williams, Т.С. Кук / T.S. Cook
Продюсер: Билл Карраро / Bill Carraro, Кэрол Бахорик / Carol Bahoric, Фрэнк Прайс / Frank Price, Роберт Уильямс / Robert Williams
Оператор: Рон Орье / Ron Orieux
Композитор: Ли Холдридж / Lee Holdridge
Мировая премьера: 26 августа 1995
-За исходный материал спасибо alinto-Качество: BDRip 1080р
Контейнер: MKV
Видео: AVC, 1920x1080 (16:9), 14690 kbps, 23,976 fps, 0,295 bpp
Аудио №1: английский / DTS / 5.1 / 48 kHz / 1510 kbps / 24 bit
Аудио №2: русский / AC3 / 2.0 / 48 kHz / 192 kbps / 16 bit || VO
Аудио №3: русский / AC3 / 2.0 / 48 kHz / 192 kbps / 16 bit || AVO
Формат субтитров: softsub (SRT)-

Media Info

General
Unique ID : 200999491331741519180837142242581628556 (0x9737180AE50CED1BA98DB648F13D468C)
Complete name : F:\The.Tuskegee.Airmen.1995.BDRip.1080p.mkv
Format : Matroska
Format version : Version 2
File size : 12.5 GiB
Duration : 1h 46mn
Overall bit rate : 16.9 Mbps
Encoded date : UTC 2013-03-26 05:05:04
Writing application : mkvmerge v5.8.0 ('No Sleep / Pillow') built on Sep 2 2012 15:37:04
Writing library : libebml v1.2.3 + libmatroska v1.3.0
Video
ID : 1
Format : AVC
Format/Info : Advanced Video Codec
Format profile : [email protected]
Format settings, CABAC : Yes
Format settings, ReFrames : 4 frames
Codec ID : V_MPEG4/ISO/AVC
Duration : 1h 46mn
Bit rate : 14.7 Mbps
Width : 1 920 pixels
Height : 1 080 pixels
Display aspect ratio : 16:9
Frame rate : 23.976 fps
Color space : YUV
Chroma subsampling : 4:2:0
Bit depth : 8 bits
Scan type : Progressive
Bits/(Pixel*Frame) : 0.295
Stream size : 10.9 GiB (87%)
Writing library : x264 core 130 r2273 b3065e6
Encoding settings : cabac=1 / ref=4 / deblock=1:0:0 / analyse=0x3:0x113 / me=umh / subme=9 / psy=1 / psy_rd=1.00:0.15 / mixed_ref=1 / me_range=32 / chroma_me=1 / trellis=2 / 8x8dct=1 / cqm=0 / deadzone=21,11 / fast_pskip=1 / chroma_qp_offset=-3 / threads=12 / lookahead_threads=3 / sliced_threads=0 / nr=0 / decimate=1 / interlaced=0 / bluray_compat=0 / constrained_intra=0 / bframes=10 / b_pyramid=2 / b_adapt=2 / b_bias=0 / direct=3 / weightb=1 / open_gop=0 / weightp=2 / keyint=250 / keyint_min=24 / scenecut=40 / intra_refresh=0 / rc_lookahead=50 / rc=crf / mbtree=1 / crf=19.0 / qcomp=0.60 / qpmin=10 / qpmax=51 / qpstep=4 / vbv_maxrate=50000 / vbv_bufsize=62500 / crf_max=0.0 / nal_hrd=none / ip_ratio=1.40 / aq=2:1.00
Language : English
Default : Yes
Forced : No
Audio #1
ID : 2
Format : DTS
Format/Info : Digital Theater Systems
Codec ID : A_DTS
Duration : 1h 46mn
Bit rate mode : Constant
Bit rate : 1 510 Kbps
Channel(s) : 6 channels
Channel positions : Front: L C R, Side: L R, LFE
Sampling rate : 48.0 KHz
Bit depth : 24 bits
Compression mode : Lossy
Stream size : 1.12 GiB (9%)
Title : English
Language : English
Default : No
Forced : No
Audio #2
ID : 3
Format : AC-3
Format/Info : Audio Coding 3
Mode extension : CM (complete main)
Codec ID : A_AC3
Duration : 1h 46mn
Bit rate mode : Constant
Bit rate : 192 Kbps
Channel(s) : 2 channels
Channel positions : Front: L R
Sampling rate : 48.0 KHz
Bit depth : 16 bits
Compression mode : Lossy
Stream size : 146 MiB (1%)
Title : Одноголосый
Language : Russian
Default : No
Forced : No
Audio #3
ID : 4
Format : AC-3
Format/Info : Audio Coding 3
Mode extension : CM (complete main)
Codec ID : A_AC3
Duration : 1h 46mn
Bit rate mode : Constant
Bit rate : 192 Kbps
Channel(s) : 2 channels
Channel positions : Front: L R
Sampling rate : 48.0 KHz
Bit depth : 16 bits
Compression mode : Lossy
Stream size : 146 MiB (1%)
Title : Карцев
Language : Russian
Default : Yes
Forced : No
Text #1
ID : 5
Format : UTF-8
Codec ID : S_TEXT/UTF8
Codec ID/Info : UTF-8 Plain Text
Language : Russian
Default : No
Forced : No
Text #2
ID : 6
Format : UTF-8
Codec ID : S_TEXT/UTF8
Codec ID/Info : UTF-8 Plain Text
Language : English
Default : No
Forced : No
Text #3
ID : 7
Format : UTF-8
Codec ID : S_TEXT/UTF8
Codec ID/Info : UTF-8 Plain Text
Language : English
Default : No
Forced : No

х264

x264 [info]: frame I:947 Avg QP:16.94 size:214117
x264 [info]: frame P:36747 Avg QP:19.73 size:107251
x264 [info]: frame B:115039 Avg QP:21.16 size: 67976
x264 [info]: consecutive B-frames: 1.3% 2.0% 26.0% 17.6% 18.7% 30.6% 2.5% 0.5% 0.3% 0.3% 0.3%
x264 [info]: mb I I16..4: 3.9% 94.3% 1.8%
x264 [info]: mb P I16..4: 1.1% 37.7% 0.5% P16..4: 37.8% 14.2% 4.7% 0.0% 0.0% skip: 4.1%
x264 [info]: mb B I16..4: 0.2% 16.0% 0.1% B16..8: 39.0% 8.6% 1.8% direct:15.5% skip:18.8% L0:43.7% L1:43.1% BI:13.2%
x264 [info]: 8x8 transform intra:97.1% inter:75.3%
x264 [info]: direct mvs spatial:100.0% temporal:0.0%
x264 [info]: coded y,uvDC,uvAC intra: 96.7% 96.2% 86.2% inter: 52.5% 54.5% 12.8%
x264 [info]: i16 v,h,dc,p: 24% 15% 26% 35%
x264 [info]: i8 v,h,dc,ddl,ddr,vr,hd,vl,hu: 12% 9% 30% 7% 8% 9% 7% 9% 10%
x264 [info]: i4 v,h,dc,ddl,ddr,vr,hd,vl,hu: 14% 8% 4% 8% 15% 16% 14% 11% 11%
x264 [info]: i8c dc,h,v,p: 70% 14% 11% 6%
x264 [info]: Weighted P-Frames: Y:3.0% UV:0.9%
x264 [info]: ref P L0: 52.9% 11.9% 22.9% 9.4% 2.9% 0.1%
x264 [info]: ref B L0: 82.0% 14.4% 3.6%
x264 [info]: ref B L1: 89.7% 10.3%
x264 [info]: kb/s:15024.65

Скриншоты

Other forum [Profile] [PM]
Display posts from previous:    
Reply to topic

The time now is: Today 18:53

All times are GMT + 3 Hours



You cannot post new topics in this forum
You cannot reply to topics in this forum
You cannot edit your posts in this forum
You cannot delete your posts in this forum
You cannot vote in polls in this forum
You cannot attach files in this forum
You cannot download files in this forum