Today is a free download without charge Download

Умка - Акустика: Новые и редкие песни - Челябинск - 16.03.2013 [2013, Rock, HDCamRip]

Reply to topic
 
Author
Message

Omen ®

Longevity: 8 years 4 months

Posts: 181087

Торрент-статистика

Post 26-Mar-2013 07:36

[Quote]

Умка - Акустика: Новые и редкие песни - Челябинск - 16.03.2013
Жанр: Rock
Продолжительность: 01:23:03
Год выпуска: 2013
Описание: Концерт Умки в Челябинске
Качество: HDCamRip
Контейнер: M2TS
Видео кодек: AVC
Аудио кодек: AC3
Видео: AVC, 1440*1080, 16*9, 8.6 Mbps, 25.000 fps
Аудио: AC-3, 2ch, 48.0 KHz, 16-bit, 256 Kbps

Отчёт MediaInfo / BDInfo

ОбщееИдентификатор : 0 (0x0)Полное имя : K:\Кино\Умка - Челябинск - 16.03.2013.MTSФормат : BDAVФормат/Информация : Blu-ray VideoРазмер файла : 5,40 ГбайтПродолжительность : 1 ч. 23 м.Режим общего битрейта : ПеременныйОбщий поток : 9308 Кбит/секМаксимальный общий битрейт : 18,0 Мбит/сек
ВидеоИдентификатор : 4113 (0x1011)Идентификатор меню : 1 (0x1)Формат : AVCФормат/Информация : Advanced Video CodecПрофиль формата : [email protected]Параметр CABAC формата : ДаПараметр ReFrames формата : 2 кадраПараметр GOP формата : M=2, N=13Идентификатор кодека : 27Продолжительность : 1 ч. 23 м.Вид битрейта : ПеременныйБитрейт : 8675 Кбит/секМаксимальный битрейт : 16,0 Мбит/секШирина : 1440 пикселейВысота : 1080 пикселейСоотношение сторон : 16:9Частота кадров : 25,000 кадров/секЦветовое пространство : YUVСубдискретизация насыщенности : 4:2:0Битовая глубина : 8 битТип развёртки : ЧересстрочнаяПорядок развёртки : Верхнее поле первоеБит/(Пиксели*Кадры) : 0.223Размер потока : 5,03 Гбайт (93%)
АудиоИдентификатор : 4352 (0x1100)Идентификатор меню : 1 (0x1)Формат : AC-3Формат/Информация : Audio Coding 3Расширение режима : CM (complete main)Параметр Endianness формата : BigИдентификатор кодека : 129Продолжительность : 1 ч. 23 м.Вид битрейта : ПостоянныйБитрейт : 256 Кбит/секКаналы : 2 каналаРасположение каналов : Front: L RЧастота : 48,0 КГцБитовая глубина : 16 битМетод сжатия : С потерямиЗадержка видео : -80 мс.Размер потока : 152 Мбайт (3%)

Скриншоты

Other forum [Profile] [PM]
Display posts from previous:    
Reply to topic

The time now is: Today 18:47

All times are GMT + 3 Hours



You cannot post new topics in this forum
You cannot reply to topics in this forum
You cannot edit your posts in this forum
You cannot delete your posts in this forum
You cannot vote in polls in this forum
You cannot attach files in this forum
You cannot download files in this forum