Today is a free download without charge Download

Мать и мачеха [1 серии из 12] (2013) SATRip [Обновляемая]

Reply to topic
 
Author
Message

UndegraundMen ®

Longevity: 8 years 9 months

Posts: 25145

Торрент-статистика

Post 26-Mar-2013 06:44

[Quote]

Мать и мачеха [1 серии из 12] (2013) SATRip [Обновляемая]- Русское название: Мать и мачеха
Выпущено: Россия, Кинокомпания АСДС
Год выпуска: 2013
Жанр: Мелодрама
Перевод: Оригинал (Русский)
Субтитры: Отсутствуют
Дата российской премьеры: 25 марта 2013
Режиссер: Дмитрий Светозаров
Актеры: Наталия Вдовина, Александра Куликова, Сергей Барышев, Вадим Яковлев, Илья Божко, Светлана Щедрина, Сергей Мардарь, Сергей Галич, Сергей Волкош, Даниил Кокин, Алексей Федотов, Ирина Ракшина, Артемий Шаффер, Тимофей Будкевич, Андрей Иванов
Описание фильма:
Действие фильма начинается в 1989 году, а заканчивается в наши дни.
В семье простой учительницы Марии растет 3-летняя дочка. Выясняется, что девочка тяжело больна. Чтобы спасти ее, нужны большие деньги или большие связи. Ни того, ни другого у Марии нет. Безуспешно перепробовав все способы спасти дочь, Мария отчаивается.
В это время другая женщина – Анна - тоже пребывает в отчаянии. Она дочь известного писателя, у нее есть всё – положение в обществе, деньги, любящий муж. Всё, кроме ребенка.
В результате судьбы этих двух очень разных женщин тесно переплетаются друг с другом, как лепестки мать-и-мачехи…
Продолжительность: 1 х ~ 00:50:38 серия
Качество видео: SATRip
Видеокодек: Xvid
Битрейт видео: ~1251 Kbit/s
Размер кадра: 704 х 400
Аудиокодек: MP3, 2.0
Битрейт аудио: 128 Kbit/s
Внимание! Раздача ведётся путём добавления новых серий

Внимание! Раздача ведётся путём добавления новых серий. Описание обновления торрента.

Внимание! Раздача ведётся путём добавления новых серий; при каждом добавлении создётся новый торрент. Чтобы начать докачку новой серии, пользователям необходимо сделать следующее:
(1) остановить скачивание,
(2) удалить старый торрент у себя из клиента (старые серии удалять не надо),
(3) скачать новый торрент и запустить его у себя в клиенте вместо старого, при этом указать клиенту путь в старую папку куда и должно происходить скачивание новых серий.
Ваш клиент при этом должен произвести хеширование (проверку) старой папки (если не производит сам - помогите ему сделать это), и будет докачивать только те серии которых у вас ещё нет. Старые серии при этом не удаляются, а продолжают раздаваться!
Eсли вы уже удалили старые серии, то предотвратить повторную закачку старых серий можно, отжав галочку в соответсвующих местах при запуске нового торрента. По возможности, желательно не удалять старые серии как можно дольше чтобы релизёр не столько продолжал раздавать старые серии, а смог сконцентрироваться на новых.

MediaInfo

Общее
Полное имя : D:\Торренты\ФИЛЬМЫ торента\Мать и мачеха. 2013. SATRip\Мать и мачеха. 01.avi
Формат : AVI
Формат/Информация : Audio Video Interleave
Профиль формата : OpenDML
Настройки формата : rec
Размер файла : 503 Мбайт
Продолжительность : 50 м.
Общий поток : 1388 Кбит/сек
Программа кодирования : AVI-Mux GUI 1.17.8.3, Feb 16 201019:42:50
Видео
Идентификатор : 0
Формат : MPEG-4 Visual
Профиль формата : Advanced [email protected]
Параметр BVOP формата : 2
Параметр QPel формата : Нет
Параметр GMC формата : Без точки перехода
Параметр матрицы формата : Default (MPEG)
Идентификатор кодека : XVID
Идентификатор кодека/Подсказка : XviD
Продолжительность : 50 м.
Битрейт : 1251 Кбит/сек
Ширина : 704 пикс.
Высота : 400 пикс.
Соотношение сторон : 16:9
Частота кадров : 25,000 кадр/сек
Цветовое пространство : YUV
Подвыборка цветности : 4:2:0
Битовая глубина : 8 бит
Тип развёртки : Прогрессивная
Метод сжатия : С потерями
Бит/(Пиксели*Кадры) : 0.178
Размер потока : 453 Мбайт (90%)
Библиотека кодирования : XviD 64
Аудио
Идентификатор : 1
Формат : MPEG Audio
Версия формата : Version 1
Профиль формата : Layer 3
Режим : Joint stereo
Расширение режима : MS Stereo
Идентификатор кодека : 55
Идентификатор кодека/Подсказка : MP3
Продолжительность : 50 м.
Вид битрейта : Постоянный
Битрейт : 128 Кбит/сек
Каналы : 2 канала
Частота : 48,0 КГц
Метод сжатия : С потерями
Размер потока : 46,4 Мбайт (9%)
Выравнивание : Соединение по промежуткам
Продолжительность промежутка : 24 мс. (0,60 видеокадр)
Время предзагрузки промежутка : 192 ms
Библиотека кодирования : LAME3.90.3
Скриншоты:
           
Время раздачи: 24/7 по возможности
Other forum [Profile] [PM]
Display posts from previous:    
Reply to topic

The time now is: Today 05:50

All times are GMT + 3 Hours



You cannot post new topics in this forum
You cannot reply to topics in this forum
You cannot edit your posts in this forum
You cannot delete your posts in this forum
You cannot vote in polls in this forum
You cannot attach files in this forum
You cannot download files in this forum