Today is a free download without charge Download

Пищевая фабрика. Выпуск №1 / Food Factory. Warhol Soup (2012) SATRip

Reply to topic
 
Author
Message

UndegraundMen ®

Longevity: 7 years 7 months

Posts: 25145

Торрент-статистика

Post 26-Mar-2013 03:37

[Quote]

Пищевая фабрика. Выпуск №1. Овощной суп / Food Factory. Warhol Soup (2012) SATRip - Режиссер / Телекомпания: Discovery
Русское название: Пищевая фабрика
Оригинальное название: Food Factory
Год выпуска: 2012
Жанр: Документальный, научно-познавательный, история, технологии, промышленность, техника
Описание:
Новое поучительное и завораживающее шоу проводит нас за кулисы удивительных производственных линий, чтобы показать, как в действительности делается еда.
** Чем-то похоже на How It's Made, но в данном случае рассматривается процесс производства только продуктов питания.
В выпуске: Овощной суп, жевательные конфеты, виски, бриошь (булка из сдобного теста).
Режиссёр: Simon Lloyd
Текст читал: Сергей Дуглов
Озвучено: Студия Кириллица
Выпущено: Профессиональный одноголосый
Продолжительность: ~ 00:21:49
Видеокодек: XVID
Битрейт видео: ~1800 kb/s
Размер кадра: 720 x 400
Качество видео: SATRip
Аудиокодек: MP3, 2ch.
Битрейт аудио: 128 kb/s

MediaInfo

Формат : AVI
Формат/Информация : Audio Video Interleave
Размер файла : 303 Мбайт
Продолжительность : 21 м.
Общий поток : 1937 Кбит/сек
Программа кодирования : VirtualDubMod 1.5.10.3 | www.virtualdub-fr.org || (build 2550/release)
Библиотека кодирования : VirtualDubMod build 2550/release
Видео
Идентификатор : 0
Формат : MPEG-4 Visual
Профиль формата : Advanced [email protected]
Параметр BVOP формата : 2
Параметр QPel формата : Нет
Параметр GMC формата : Без точки перехода
Параметр матрицы формата : Default (MPEG)
Идентификатор кодека : XVID
Идентификатор кодека/Подсказка : XviD
Продолжительность : 21 м.
Битрейт : 1800 Кбит/сек
Ширина : 720 пикселей
Высота : 400 пикселей
Соотношение сторон : 16:9
Частота кадров : 25,000 кадров/сек
Цветовое пространство : YUV
Субдискретизация насыщенности : 4:2:0
Битовая глубина : 8 бит
Тип развёртки : Прогрессивная
Метод сжатия : С потерями
Бит/(Пиксели*Кадры) : 0.250
Размер потока : 281 Мбайт (93%)
Библиотека кодирования : XviD 1.2.1 (UTC 2008-12-04)
Аудио
Идентификатор : 1
Формат : MPEG Audio
Версия формата : Version 1
Профиль формата : Layer 3
Идентификатор кодека : 55
Идентификатор кодека/Подсказка : MP3
Продолжительность : 21 м.
Вид битрейта : Постоянный
Битрейт : 128 Кбит/сек
Каналы : 1 канал
Частота : 48,0 КГц
Метод сжатия : С потерями
Размер потока : 20,0 Мбайт (7%)
Выравнивание : Соединение по промежуткам
Продолжительность промежутка : 40 мс. (1,00 видеокадр)
Время предзагрузки промежутка : 504 мс.
Библиотека кодирования : LAME3.99r
Настройки программы : -m m -V 4 -q 2 -lowpass 20.5 -b 128
Скриншоты:                    Время раздачи: 24/7. До первых 5 скачавших.
Rip by
Пищевая фабрика на NoNaMe Club
Other forum [Profile] [PM]
Display posts from previous:    
Reply to topic

The time now is: Today 07:46

All times are GMT + 3 Hours



You cannot post new topics in this forum
You cannot reply to topics in this forum
You cannot edit your posts in this forum
You cannot delete your posts in this forum
You cannot vote in polls in this forum
You cannot attach files in this forum
You cannot download files in this forum