Today is a free download without charge Download

Речные монстры. Выпуск №1. Самое странное / River monsters. The Most Bizarre (2013) SATRip

Reply to topic
 
Author
Message

UndegraundMen ®

Longevity: 7 years 7 months

Posts: 25145

Торрент-статистика

Post 26-Mar-2013 03:37

[Quote]

Речные монстры. Выпуск №1. Самое странное / River monsters. The Most Bizarre (2013) SATRip - Режиссер / Телекомпания: Discovery
Русское название: Речные монстры
Оригинальное название: River monsters
Год выпуска: 2013
Жанр: Документальный, рыбалка, путешествия, география, природа, приключения
Выпущено: США, Icon Films, Global Entertainment, Discovery Chann
Описание:
Джереми Уэйд вспоминает о своих встречах с самыми странными пресноводными рыбами мира, включая хищного сома, который, как говорят, проглотил одного рыбака целиком
Режиссёр: Алекс Паркинсон, Стив Гудер
Ведущий: Джереми Уэйд
Озвучено: VSI Москва
Перевод: Профессиональный одноголосый
Продолжительность: ~ 00:44:09
Видеокодек: DviX
Битрейт видео: ~1550 kb/s
Размер кадра: 720 x 400
Качество видео: SATRip
Аудиокодек: MP3, 2ch.
Битрейт аудио: 128 kb/s

MediaInfo

Формат : AVI
Формат/Информация : Audio Video Interleave
Размер файла : 533 Мбайт
Продолжительность : 44 м.
Общий поток : 1686 Кбит/сек
Программа кодирования : TMPGEnc Video Mastering Works 5 Version. 5.0.6.38
Библиотека кодирования : TMPGEnc Video Mastering Works 5 Version. 5.0.6.38
Видео
Идентификатор : 0
Формат : MPEG-4 Visual
Параметр BVOP формата : 1
Параметр QPel формата : Нет
Параметр GMC формата : Без точки перехода
Параметр матрицы формата : Default (H.263)
Режим смешивания : Сжатый битовый поток
Идентификатор кодека : DX50
Идентификатор кодека/Подсказка : DivX 5
Продолжительность : 44 м.
Битрейт : 1550 Кбит/сек
Ширина : 720 пикселей
Высота : 400 пикселей
Соотношение сторон : 16:9
Частота кадров : 25,000 кадров/сек
Цветовое пространство : YUV
Субдискретизация насыщенности : 4:2:0
Битовая глубина : 8 бит
Тип развёртки : Прогрессивная
Метод сжатия : С потерями
Бит/(Пиксели*Кадры) : 0.215
Размер потока : 490 Мбайт (92%)
Библиотека кодирования : DivX 6.8.5 (UTC 2009-08-20)
Аудио
Идентификатор : 1
Формат : MPEG Audio
Версия формата : Version 1
Профиль формата : Layer 3
Режим : Joint stereo
Расширение режима : MS Stereo
Идентификатор кодека : 55
Идентификатор кодека/Подсказка : MP3
Продолжительность : 44 м.
Вид битрейта : Постоянный
Битрейт : 128 Кбит/сек
Каналы : 2 канала
Частота : 48,0 КГц
Метод сжатия : С потерями
Размер потока : 40,4 Мбайт (8%)
Выравнивание : Разделение по промежуткам
Продолжительность промежутка : 250 мс. (6,25 видеокадров)
Время предзагрузки промежутка : 206 мс.
Скриншоты:                    Время раздачи: 24/7. До первых 5 скачавших.
Rip by Alexey724
Речные монстры на NoNaMe Club
Other forum [Profile] [PM]
Display posts from previous:    
Reply to topic

The time now is: Today 00:21

All times are GMT + 3 Hours



You cannot post new topics in this forum
You cannot reply to topics in this forum
You cannot edit your posts in this forum
You cannot delete your posts in this forum
You cannot vote in polls in this forum
You cannot attach files in this forum
You cannot download files in this forum