Today is a free download without charge Download

Лесник 2 (1-2 серии из 48) (2013) SATRip [Обновляемая]

Reply to topic
 
Author
Message

UndegraundMen ®

Longevity: 8 years 9 months

Posts: 25145

Торрент-статистика

Post 25-Mar-2013 22:06

[Quote]

Лесник 2 (1-2 серии из 48) (2013) SATRip- Русское название: Лесник 2
Год выпуска: 2013
Производство: Россия, Мостелефильм
Жанр: Криминал, детектив
Режиссер: Виктор Конисевич, Сергей Артимович
Актеры: Анна Большова, Александр Цуркан, Михаил Васьков, Олег Штефанко, Алексей Булдаков, Артём Федотов, Николай Зазуля, Олег Кленов, Евгений Пилипенко, Яна Львова, Тимофей Смирнов, Яна Кошкина, Марина Казанкова, Андрей Курилов, Руслан Спояло, Мария Матто, Рустам Махмутов, Павел Фартуков, Валерий Шумский
Описание фильма:
Лесник Олег Штефанко возвращается на НТВ!
В таежной глуши, как и прежде, нет покоя: то чужие в лесу заплутают, то свои попадут в беду, то нагрянут лихие гости. Но с лесником - не забалуешь! Мужественный и невероятно обаятельный Леонид Зубов продолжает наводить порядок в суровой тайге!В новом сезоне ему придется столкнуться с множеством испытаний и проблем. Он раскроет не одно преступление, связанное с браконьерством, незаконным предпринимательством и криминалом, разоблачит преступников, называющих себя «лесными братьями»... И все это не без помощи старых-добрых друзей: охотника и геолога Глеба Сивого и старшего следователя прокуратуры Виктора Дронова.
На личном фронте тоже не обойдется без перемен: как сложатся отношения с фельдшером Верой, чем обернется повышенный интерес к новенькой учительнице, что изменится в жизни лесника с приездом дочери Анны? Удастся ли хозяину тайги добиться семейного счастья и очистить лес от преступности, смотрите в новых сериях любимого сериала «Лесник» на НТВ!- -Продолжительность: ~ 00:44:00 серия
Качество видео: SATRip
Видеокодек: XviD
Битрейт видео: ~ 1650 Кбит/сек
Размер кадра: 720x400
Аудио: Русский, МР3, 2 ch, 128 Кбит/с

Внимание! Раздача ведётся путём добавления новых серий. Описание обновления торрента:

Внимание!
Раздача ведётся путём добавления новых серий; при каждом добавлении создётся новый торрент. Чтобы начать докачку новой серии, пользователям необходимо сделать следующее:
(1) остановить скачивание,
(2) удалить старый торрент у себя из клиента (старые серии удалять не надо),
(3) скачать новый торрент и запустить его у себя в клиенте вместо старого, при этом указать клиенту путь в старую папку куда и должно происходить скачивание новых серий.
Ваш клиент при этом должен произвести хеширование (проверку) старой папки (если не производит сам - помогите ему сделать это), и будет докачивать только те серии которых у вас ещё нет. Старые серии при этом не удаляются, а продолжают раздаваться!
Eсли вы уже удалили старые серии, то предотвратить повторную закачку старых серий можно, отжав галочку в соответсвующих местах при запуске нового торрента. По возможности, желательно не удалять старые серии как можно дольше чтобы релизёр не столько продолжал раздавать старые серии, а смог сконцентрироваться на новых.

MediaInfo

Код:
Общее
Полное имя                               : E:\Раздачи\Обновляемые\Лесник 2\Lesnik-2.(1.seriya).avi
Формат                                   : AVI
Формат/Информация                        : Audio Video Interleave
Размер файла                             : 571 Мбайт
Продолжительность                        : 44 м.
Общий поток                              : 1782 Кбит/сек
Библиотека кодирования                   : VirtualDub build 34807/release
Видео
Идентификатор                            : 0
Формат                                   : MPEG-4 Visual
Профиль формата                          : Advanced [email protected]
Параметр BVOP формата                    : 2
Параметр QPel формата                    : Нет
Параметр GMC формата                     : Без точки перехода
Параметр матрицы формата                 : Default (H.263)
Режим смешивания                         : Сжатый битовый поток
Идентификатор кодека                     : XVID
Идентификатор кодека/Подсказка           : XviD
Продолжительность                        : 44 м.
Битрейт                                  : 1644 Кбит/сек
Ширина                                   : 720 пикселей
Высота                                   : 400 пикселей
Соотношение сторон                       : 16:9
Частота кадров                           : 25,000 кадров/сек
Цветовое пространство                    : YUV
Субдискретизация насыщенности            : 4:2:0
Битовая глубина                          : 8 бит
Тип развёртки                            : Прогрессивная
Метод сжатия                             : С потерями
Бит/(Пиксели*Кадры)                      : 0.228
Размер потока                            : 527 Мбайт (92%)
Библиотека кодирования                   : XviD 64
Аудио
Идентификатор                            : 1
Формат                                   : MPEG Audio
Версия формата                           : Version 1
Профиль формата                          : Layer 3
Режим                                    : Joint stereo
Расширение режима                        : MS Stereo
Идентификатор кодека                     : 55
Идентификатор кодека/Подсказка           : MP3
Продолжительность                        : 44 м.
Вид битрейта                             : Постоянный
Битрейт                                  : 128 Кбит/сек
Каналы                                   : 2 канала
Частота                                  : 48,0 КГц
Метод сжатия                             : С потерями
Размер потока                            : 41,0 Мбайт (7%)
Выравнивание                             : Разделение по промежуткам
Продолжительность промежутка             : 40  мс. (1,00 видеокадр)
Время предзагрузки промежутка            : 500  мс.
Скриншоты:
         
         -Время раздачи: 9.00 - 23.00 (по мере возможности...)
Other forum [Profile] [PM]
Display posts from previous:    
Reply to topic

The time now is: Today 18:39

All times are GMT + 3 Hours



You cannot post new topics in this forum
You cannot reply to topics in this forum
You cannot edit your posts in this forum
You cannot delete your posts in this forum
You cannot vote in polls in this forum
You cannot attach files in this forum
You cannot download files in this forum