Сегодня идет свободное скачивание без начисления Download

Борец и клоун (1957) DVDRip

Ответить на тему
 
Автор
Сообщение

UndegraundMen ®

Стаж: 5 лет 7 месяцев

Сообщений: 25860

Торрент-статистика

Пост 25-Мар-2013 22:06

[Цитировать]

Борец и клоун (1957) DVDRip- Русское название: Борец и клоун
Год выпуска: 1957
Жанр: Драма
Описание фильма:
В картине представлены драматические эпизоды из жизни борца Ивана Поддубного и клоуна-дрессировщика Анатолия Дурова. Фильм об одной из ярких страниц истории русского цирка. Прославленные артисты - борец Иван Поддубный и клоун-дрессировщик Анатолий Дуров - были всемирно знамениты и любимы народом. Но судьбы их полны драматических коллизий… Фильм "Борец и клоун" начинал снимать Константин Юдин. Эта была давняя его задумка. Однако во время съёмок Юдин заболел и умер. Фильм закончил Борис Барнет.
Режиссер: Константин Юдин, Борис Барнет
Актеры: Станислав Чекан, Александр Михайлов, Анатолий Соловьев, Борис Петкер, Ия Арепина, Георгий Вицин, Григорий Абрикосов, Григорий Шпигель, Полина Нятко, Юрий Медведев, Степан Каюков, Тамара Логинова, Владимир Дорофеев

Продолжительность: 01:34:26

Видеокодек: Xvid
Битрейт видео: ~967 kbps
Размер кадра: 640x480
Качество видео: DVDRip
Аудиокодек: MP3, 2ch
Битрейт аудио: 128.00 kbps

MI

Общее
Полное имя : C:\Users\1\Downloads\Borec_i_Kloun.avi
Формат : AVI
Формат/Информация : Audio Video Interleave
Размер файла : 746 Мбайт
Продолжительность : 1 ч. 34 м.
Общий поток : 1105 Кбит/сек
Программа кодирования : VirtualDubMod 1.5.10.3 | www.virtualdub-fr.org || (build 2550/release)
Библиотека кодирования : VirtualDubMod build 2550/release
Видео
Идентификатор : 0
Формат : MPEG-4 Visual
Профиль формата : Advanced [email protected]
Параметр BVOP формата : 2
Параметр QPel формата : Нет
Параметр GMC формата : Без точки перехода
Параметр матрицы формата : Выборочная
Идентификатор кодека : XVID
Идентификатор кодека/Подсказка : XviD
Продолжительность : 1 ч. 34 м.
Битрейт : 967 Кбит/сек
Ширина : 640 пикселей
Высота : 480 пикселей
Соотношение сторон : 4:3
Частота кадров : 25,000 кадров/сек
Цветовое пространство : YUV
Субдискретизация насыщенности : 4:2:0
Битовая глубина : 8 бит
Тип развёртки : Прогрессивная
Метод сжатия : С потерями
Бит/(Пиксели*Кадры) : 0.126
Размер потока : 653 Мбайт (88%)
Библиотека кодирования : XviD 65
Аудио
Идентификатор : 1
Формат : MPEG Audio
Версия формата : Version 1
Профиль формата : Layer 3
Идентификатор кодека : 55
Идентификатор кодека/Подсказка : MP3
Продолжительность : 1 ч. 34 м.
Вид битрейта : Постоянный
Битрейт : 128 Кбит/сек
Каналы : 2 канала
Частота : 48,0 КГц
Метод сжатия : С потерями
Размер потока : 86,5 Мбайт (12%)
Выравнивание : Соединение по промежуткам
Продолжительность промежутка : 40 мс. (1,00 видеокадр)
Время предзагрузки промежутка : 504 мс.
Библиотека кодирования : LAME3.99r
Настройки программы : -m s -V 4 -q 2 -lowpass 17 -b 128
Скриншоты:
       
Время раздачи: 24/7 [url=/forum/tracker.php?pid=2645571]МОИ РЕЛИЗЫ[/url]
Вне форума [Профиль] [ЛС]
Показать сообщения:    
Ответить на тему

Текущее время: Сегодня 02:01

Часовой пояс: GMT + 3



Вы не можете начинать темы
Вы не можете отвечать на сообщения
Вы не можете редактировать свои сообщения
Вы не можете удалять свои сообщения
Вы не можете голосовать в опросах
Вы не можете прикреплять файлы к сообщениям
Вы не можете скачивать файлы