Today is a free download without charge Download

Лесник 2 / Серии: 1-2 из 48 (Виктор Конисевич, Сергей Артимович) [2013, Криминал, детектив, SATRip]

Reply to topic
 
Author
Message

Omen ®

Longevity: 9 years 1 month

Posts: 181086

Торрент-статистика

Post 25-Mar-2013 21:22

[Quote]

Лесник 2
Год выпуска: 2013
Производство: Россия, Мостелефильм
Жанр: Криминал, детектив
Продолжительность: 2х ~ 00:45:00
Субтитры: нет
Режиссёр: Виктор Конисевич, Сергей Артимович
В ролях: Анна Большова, Александр Цуркан, Михаил Васьков, Олег Штефанко, Алексей Булдаков, Артём Федотов, Николай Зазуля, Олег Кленов, Евгений Пилипенко, Яна Львова, Тимофей Смирнов, Яна Кошкина, Марина Казанкова, Андрей Курилов, Руслан Спояло, Мария Матто, Рустам Махмутов, Павел Фартуков, Валерий Шумский, Максим Дромашко, Андрей Стоянов, Мария Викторова, Олег Карин, Владимир Ширяев, Елена Никитина, Евгений Морозов, Анастасия Королькова, Виктор Мютников, Ольга Приходько, Сергей Гришаков, Владимир Зайцев, Юлия Куварзина, Михаил Процько, Денис Сухомлинов, Владимир Тимофеев, Михаил Солодко, Николай Сморчков, Вера Пересветова, Анатолий Котенёв, Александр Пальчиков, Александр Никольский, Павел Черн
Описание: Лесник Олег Штефанко возвращается на НТВ! В таежной глуши, как и прежде, нет покоя: то чужие в лесу заплутают, то свои попадут в беду, то нагрянут лихие гости. Но с лесником - не забалуешь! Мужественный и невероятно обаятельный Леонид Зубов продолжает наводить порядок в суровой тайге!В новом сезоне ему придется столкнуться с множеством испытаний и проблем. Он раскроет не одно преступление, связанное с браконьерством, незаконным предпринимательством и криминалом, разоблачит преступников, называющих себя «лесными братьями»... И все это не без помощи старых-добрых друзей: охотника и геолога Глеба Сивого и старшего следователя прокуратуры Виктора Дронова.На личном фронте тоже не обойдется без перемен: как сложатся отношения с фельдшером Верой, чем обернется повышенный интерес к новенькой учительнице, что изменится в жизни лесника с приездом дочери Анны? Удастся ли хозяину тайги добиться семейного счастья и очистить лес от преступности, смотрите в новых сериях любимого сериала «Лесник» на НТВ!
Все раздачи сериала
Сэмпл
Качество: SATRip
Формат: AVI
Видео кодек: XviD
Аудио кодек: MP3
Видео: 720x400 (1.80:1), 25 fps, XviD build 50 ~1521 kbps avg, 0.21 bit/pixel
Аудио: 48 kHz, MPEG Layer 3, 2 ch, ~192.00 kbps avg
Релиз от:

MI

General
Complete name : V:\ftp4\Videos\Лесник-2.01.серия.2013.SATRip.Files-x.avi
Format : AVI
Format/Info : Audio Video Interleave
File size : 550 MiB
Duration : 44mn 36s
Overall bit rate : 1 724 Kbps
Writing application : VirtualDubMod 1.5.10.3 | www.virtualdub-fr.org || (build 2550/release)
Writing library : VirtualDubMod build 2550/release
Video
ID : 0
Format : MPEG-4 Visual
Format profile : Advanced [email protected]
Format settings, BVOP : 1
Format settings, QPel : No
Format settings, GMC : No warppoints
Format settings, Matrix : Default (H.263)
Codec ID : XVID
Codec ID/Hint : XviD
Duration : 44mn 36s
Bit rate : 1 522 Kbps
Width : 720 pixels
Height : 400 pixels
Display aspect ratio : 16:9
Frame rate : 25.000 fps
Color space : YUV
Chroma subsampling : 4:2:0
Bit depth : 8 bits
Scan type : Progressive
Compression mode : Lossy
Bits/(Pixel*Frame) : 0.211
Stream size : 486 MiB (88%)
Writing library : XviD 1.2.1 (UTC 2008-12-04)
Audio
ID : 1
Format : MPEG Audio
Format version : Version 1
Format profile : Layer 3
Codec ID : 55
Codec ID/Hint : MP3
Duration : 44mn 36s
Bit rate mode : Constant
Bit rate : 192 Kbps
Channel(s) : 2 channels
Sampling rate : 48.0 KHz
Compression mode : Lossy
Stream size : 61.3 MiB (11%)
Alignment : Aligned on interleaves
Interleave, duration : 40 ms (1.00 video frame)
Interleave, preload duration : 504 ms
Writing library : LAME3.98r
Encoding settings : -m s -V 4 -q 2 -lowpass 18.6 -b 192

Скриншоты

Раздача ведется путем добавления новых серий

Внимание! Раздача ведётся путём добавления новых серий; при каждом добавлении создётся новый торрент. Чтобы начать докачку новой серии, пользователям необходимо сделать следующее:
(1) остановить скачивание,
(2) удалить старый торрент у себя из клиента (старые серии удалять не надо),
(3) скачать новый торрент и запустить его у себя в клиенте вместо старого, при этом указать клиенту путь в старую папку куда и должно происходить скачивание новых серий.
Ваш клиент при этом должен произвести хеширование (проверку) старой папки (если не производит сам - помогите ему сделать это), и будет докачивать только те серии которых у вас ещё нет. Старые серии при этом не удаляются, а продолжают раздаваться!
Eсли вы уже удалили старые серии, то предотвратить повторную закачку старых серий можно, отжав галочку в соответствующих местах при запуске нового торрента.
Other forum [Profile] [PM]
Display posts from previous:    
Reply to topic

The time now is: Today 04:40

All times are GMT + 3 Hours



You cannot post new topics in this forum
You cannot reply to topics in this forum
You cannot edit your posts in this forum
You cannot delete your posts in this forum
You cannot vote in polls in this forum
You cannot attach files in this forum
You cannot download files in this forum