Today is a free download without charge Download

Кухня / Сезон 2 / Сезон: 1 из 20 (Дмитрий Дьяченко) [2013, комедия, SATRip]

Reply to topic
 
Author
Message

Omen ®

Longevity: 9 years 1 month

Posts: 181086

Торрент-статистика

Post 25-Mar-2013 17:20

[Quote]

Кухня.
Год выпуска: 2013
Производство: YBW Group, СТС
Жанр: Комедия
Продолжительность: 00:24:00
Субтитры: Нет--Режиссёр: Дмитрий Дьяченко--В ролях: Никита Тарасов, Дмитрий Назаров, Марк Богатырев, Дмитрий Нагиев, Юлия Такшина, Елена Подкаминская, Марина Могилевская, Сергей Лавыгин, Виктор Хориняк, Сергей Епишев, Ольга Кузьмина, Екатерина Кузнецова (IV), Михаил Тарабукин, Виктория Лукина, Елена Чернявская, Виталий Щанников, Сергей Беляев, Роман Индык, Евгения Храповицкая, Серафима Низовская--Описание: Главный герой Максим Лавров — выпускник Воронежского кулинарного колледжа — одержим мечтой: стать знаменитым шеф-поваром.
Для этого он отправляется в Москву, чтобы устроиться в известнейший и популярный ресторан «Гюго», хозяином которого является «звезда» шоу-бизнеса.
Шеф-повар ресторана «Гюго» — знаменитый на всю Москву Виктор Баринов. Властный, харизматичный, самодур, пьяница и игрок, но повар от бога.
Арт-директор ресторана — Виктория Гончарова. Ей 30, она хитра, образованна, красива. Вся её жизнь — карьера, в ней нет места личной жизни.
Сотрудники ресторана работают в условиях вечного конфликта Шеф-повара и Арт-директора. Один ставит во главу угла прекрасно приготовленную на его кухне еду. Другая — сервис и атмосферу зала ресторана, которую создает она.
Именно в это заведение и попадает Максим. Парень знает себе цену и всеми способами пытается завоевать доверие шеф-повара и остаться на кухне. Однако отсутствие опыта и чрезмерное желание самоутвердиться ввергают Максима в череду коллизий, которую ему придётся преодолеть, чтобы стать частью этого мира.--Все раздачи сериала: http:///*spam*//forum/tracker.php?f=9&nm=%...E5%ED%EA%EE+2012
Сэмпл: http://multi-up.com/846642
Качество: SATRip
Формат: AVI
Видео кодек: XviD
Аудио кодек: MP3
Видео: MPEG4, XviD, 704x400 (16/9), 25.000 fps, 1 637 Kbps (0.233 bit/pixel)
Аудио: MP3, 48.0 KHz, 2 ch, 128 Kbps, CBR

Релиз:by ANDROZZZ
Реклама отсутствует!

MI

General
Complete name : I:\ЗАКАЧКИ\Кухня Сезон 2\Kuhnya.2.(01.seriya).2013.XviD.SATRip.ANDROZZZ.avi
Format : AVI
Format/Info : Audio Video Interleave
File size : 301 MiB
Duration : 23mn 41s
Overall bit rate : 1 775 Kbps
Writing application : VirtualDubMod 1.5.10.3 | www.virtualdub-fr.org || (build 2550/release)
Writing library : VirtualDubMod build 2550/release
Video
ID : 0
Format : MPEG-4 Visual
Format profile : Advanced [email protected]
Format settings, BVOP : 2
Format settings, QPel : No
Format settings, GMC : No warppoints
Format settings, Matrix : Default (H.263)
Muxing mode : Packed bitstream
Codec ID : XVID
Codec ID/Hint : XviD
Duration : 23mn 41s
Bit rate : 1 637 Kbps
Width : 704 pixels
Height : 400 pixels
Display aspect ratio : 16:9
Frame rate : 25.000 fps
Color space : YUV
Chroma subsampling : 4:2:0
Bit depth : 8 bits
Scan type : Progressive
Compression mode : Lossy
Bits/(Pixel*Frame) : 0.233
Stream size : 277 MiB (92%)
Writing library : XviD 64
Audio
ID : 1
Format : MPEG Audio
Format version : Version 1
Format profile : Layer 3
Mode : Joint stereo
Mode extension : MS Stereo
Codec ID : 55
Codec ID/Hint : MP3
Duration : 23mn 41s
Bit rate mode : Constant
Bit rate : 128 Kbps
Channel(s) : 2 channels
Sampling rate : 48.0 KHz
Compression mode : Lossy
Stream size : 21.7 MiB (7%)
Alignment : Split accross interleaves
Interleave, duration : 40 ms (1.00 video frame)
Interleave, preload duration : 500 ms

Скриншоты



Раздача ведётся путём добавления новых серий

Раздача ведётся путём добавления новых серий; при каждом добавлении создаётся новый торрент. Чтобы начать докачку новой серии, пользователям необходимо сделать следующее:
(1) остановить скачивание,
(2) удалить старый торрент у себя из клиента (старые серии удалять не надо),
(3) скачать новый торрент и запустить его у себя в клиенте вместо старого, при этом указать клиенту путь в старую папку куда и должно происходить скачивание новых серий.
Ваш клиент при этом должен произвести хеширование (проверку) старой папки (если не производит сам - помогите ему сделать это), и будет докачивать только те серии которых у вас ещё нет. Старые серии при этом не удаляются, а продолжают раздаваться!
Eсли вы уже удалили старые серии, то предотвратить повторную закачку старых серий можно, отжав галочку в соответствующих местах при запуске нового торрента. По возможности, желательно не удалять старые серии как можно дольше чтобы релизёр не столько продолжал раздавать старые серии, а смог сконцентрироваться на новых.
Other forum [Profile] [PM]
Display posts from previous:    
Reply to topic

The time now is: Today 23:34

All times are GMT + 3 Hours



You cannot post new topics in this forum
You cannot reply to topics in this forum
You cannot edit your posts in this forum
You cannot delete your posts in this forum
You cannot vote in polls in this forum
You cannot attach files in this forum
You cannot download files in this forum