Today is a free download without charge Download

Лора / Laura (Отто Премингер / Otto Preminger, Рубен Мамулян / Rouben Mamoulian) [1944, США, фильм-нуар, триллер, мелодрама, детектив, BDRip 1080p] MVO (DVD Classic) + Sub Eng + Original Eng

Reply to topic
 
Author
Message

Omen ®

Longevity: 8 years 5 months

Posts: 181087

Торрент-статистика

Post 25-Mar-2013 17:20

[Quote]

Лора / Laura Страна: США
Жанр: фильм-нуар, триллер, мелодрама, детектив
Год выпуска: 1944
Продолжительность: 01:27:07
Перевод: Профессиональный (многоголосый закадровый) DVD Classic
Cубтитры: английские
Оригинальная аудиодорожка: английский
Режиссер: Отто Премингер / Otto Preminger, Рубен Мамулян / Rouben Mamoulian
В ролях: Джин Тирни, Дэна Эндрюс, Клифтон Уэбб, Винсент Прайс, Джудит Андерсон, Сай Кендалл, Грант Митчелл, Дороти Адамс, Терри Адамс, Лэйн Чандлер
Описание: В этом классическом детективе речь пойдет о преступлении на почве страсти. Детектив МакФерсон (Эндрюс) ведет расследование убийства красавицы Лоры (действительно прекрасная Джин Тирни), которая, как выяснилось позже, оказалась живой — в ее доме из обреза была застрелена в лицо другая женщина, одетая в ее халат. Но кто же хотел убить "воскресшую из мертвых" Лору? Под подозрением полиции оказывается ее жених (Прайс), но зритель может подозревать и обожающего Лору популярнейшего писателя и журналиста Уолдо Лайдекера (Уэбб создает ярчайший образ утонченного циника). Впрочем, что было дальше, вам следует узнать самим.
Тип релиза: BDRip 1080p
Контейнер: MKV
Видео: х264 ~13900 kbps / 1436х800 / 23.976 fps / 4:3 / High Profile 4.1
Аудио: Russian: DD 2.0 48 kHz 192 kbps
Аудио 2: English: DTS 1.0 48 kHz 768 kbps
Формат субтитров: softsub (SRT)
Чаптеры: Есть

MediaInfo

General
Unique ID : 240826169698213751614330562184010309450 (0xB52D6EE3AA27D7D1B3B5739968549F4A)
Complete name : D:\Лора.mkv
Format : Matroska
Format version : Version 4 / Version 2
File size : 9.07 GiB
Duration : 1h 27mn
Overall bit rate : 14.9 Mbps
Movie name : Лора / Laura.1944 Release for HDtracker& MeGUI
Encoded date : UTC 2013-03-25 12:22:43
Writing application : mkvmerge v6.1.0 ('Old Devil') built on Mar 2 2013 14:32:37
Writing library : libebml v1.3.0 + libmatroska v1.4.0
Video #1
ID : 1
Format : AVC
Format/Info : Advanced Video Codec
Format profile : [email protected]
Format settings, CABAC : Yes
Format settings, ReFrames : 4 frames
Codec ID : V_MPEG4/ISO/AVC
Duration : 1h 27mn
Bit rate : 13.9 Mbps
Width : 1 436 pixels
Height : 1 080 pixels
Display aspect ratio : 4:3
Frame rate mode : Constant
Frame rate : 23.976 fps
Color space : YUV
Chroma subsampling : 4:2:0
Bit depth : 8 bits
Scan type : Progressive
Bits/(Pixel*Frame) : 0.375
Stream size : 8.31 GiB (92%)
Writing library : x264 core 130 r2273 b3065e6
Encoding settings : cabac=1 / ref=4 / deblock=1:-3:-3 / analyse=0x3:0x133 / me=umh / subme=11 / psy=1 / psy_rd=1.05:0.05 / mixed_ref=1 / me_range=32 / chroma_me=1 / trellis=2 / 8x8dct=1 / cqm=0 / deadzone=21,11 / fast_pskip=0 / chroma_qp_offset=-3 / threads=12 / lookahead_threads=2 / sliced_threads=0 / nr=0 / decimate=1 / interlaced=0 / bluray_compat=0 / constrained_intra=0 / bframes=7 / b_pyramid=2 / b_adapt=2 / b_bias=0 / direct=3 / weightb=1 / open_gop=0 / weightp=2 / keyint=240 / keyint_min=22 / scenecut=40 / intra_refresh=0 / rc_lookahead=60 / rc=2pass / mbtree=1 / bitrate=13950 / ratetol=1.0 / qcomp=0.70 / qpmin=0 / qpmax=69 / qpstep=4 / cplxblur=20.0 / qblur=0.5 / vbv_maxrate=50000 / vbv_bufsize=62500 / nal_hrd=none / ip_ratio=1.40 / aq=2:1.00
Language : English
Default : No
Forced : No
Audio #2
ID : 2
Format : AC-3
Format/Info : Audio Coding 3
Format profile : Dolby Digital
Mode extension : CM (complete main)
Format settings, Endianness : Big
Codec ID : A_AC3
Duration : 1h 27mn
Bit rate mode : Constant
Bit rate : 192 Kbps
Channel(s) : 2 channels
Channel positions : Front: L R
Sampling rate : 48.0 KHz
Bit depth : 16 bits
Compression mode : Lossy
Stream size : 120 MiB (1%)
Title : AC3 2.0 MVO-DVD Classic
Language : Russian
Default : Yes
Forced : No
Audio #3
ID : 3
Format : DTS
Format/Info : Digital Theater Systems
Mode : 16
Format settings, Endianness : Big
Codec ID : A_DTS
Duration : 1h 27mn
Bit rate mode : Constant
Bit rate : 768 Kbps
Channel(s) : 1 channel
Channel positions : Front: C
Sampling rate : 48.0 KHz
Bit depth : 24 bits
Compression mode : Lossy
Stream size : 478 MiB (5%)
Title : DTS 1.0(C) Original
Language : English
Default : No
Forced : No
Text #4
ID : 4
Format : UTF-8
Codec ID : S_TEXT/UTF8
Codec ID/Info : UTF-8 Plain Text
Language : English
Default : No
Forced : No
Menu
00:00:00.000 : en:00:00:00.000
00:01:06.900 : en:00:01:06.900
00:06:43.236 : en:00:06:43.236
00:11:08.084 : en:00:11:08.084
00:15:17.541 : en:00:15:17.541
00:21:33.917 : en:00:21:33.917
00:23:58.436 : en:00:23:58.436
00:26:57.407 : en:00:26:57.407
00:29:30.935 : en:00:29:30.935
00:32:37.121 : en:00:32:37.121
00:34:31.652 : en:00:34:31.652
00:40:21.001 : en:00:40:21.001
00:46:36.960 : en:00:46:36.960
00:52:45.912 : en:00:52:45.912
00:59:59.387 : en:00:59:59.387
01:05:23.169 : en:01:05:23.169
01:08:38.614 : en:01:08:38.614
01:10:57.086 : en:01:10:57.086
01:14:44.479 : en:01:14:44.479
01:22:49.672 : en:01:22:49.672

Скриншоты

Other forum [Profile] [PM]
Display posts from previous:    
Reply to topic

The time now is: Today 10:36

All times are GMT + 3 Hours



You cannot post new topics in this forum
You cannot reply to topics in this forum
You cannot edit your posts in this forum
You cannot delete your posts in this forum
You cannot vote in polls in this forum
You cannot attach files in this forum
You cannot download files in this forum